[更早] [欧美] [喜剧] [WEB-1080P] 下课后:升上五年级 Recess.Taking.the.5th.Grade.2003.1080p.DSNP.WEBRip.DDP5.1.x264-CURFEW

uump4 1月前 155

帖子完整标题:下课后:升上五年级 Recess.Taking.the.5th.Grade.2003.1080p.DSNP.WEBRip.DDP5.1.x264-CURFEW 3.76GB

悠悠MP4_MP4电影下载_下课后:升上五年级 Recess.Taking.the.5th.Grade.2003.1080p.DSNP.WEBRip.DDP5.1.x264-CURFEW

◎译  名 下课后:升上五年级
◎片  名 Recess: Taking the Fifth Grade
◎年  代 2003
◎产  地 美国
◎类  别 喜剧 / 动画 / 家庭
◎语  言 英语
◎上映日期 2003-12-09
◎IMDb评分 6.8/10 from 1883 users
◎IMDb链接 https://www.imdb.com/title/tt0382937/
◎豆瓣评分 8.1/10 from 97 users
◎豆瓣链接 https://movie.douban.com/subject/3801241/
◎集  数 1
◎片  长 62分钟
◎导  演 霍伊·帕金斯 Howy Parkins
◎主  演 Courtland Mead
      Ryan O'Donohue
      Klee Bragger
      Jason Davis
      Anndi McAfee
      迈尔斯·杰弗里 Myles Jeffrey
      莱恩·托冉 Lane Toran
      艾什莉·约翰逊 Ashley Johnson
      艾普尔·温切尔 April Winchell
      达布尼·柯尔曼 Dabney Coleman
      阿斯·比斯利 Allyce Beasley
      帕梅拉·阿德龙 Pamela Adlon
      Francesca Smith
      丹·卡斯泰兰尼塔 Dan Castellaneta

◎标  签 美国动画 | 动画 | 美国 | 迪斯尼 | 下课后 | 美国电影 | 搞笑 | 动画片

◎简  介

  《下课后:升上五年级》可以说是迪士尼《下课后》(Recess)系列的完结篇。本片故事的几位主角们,已经风风光光度过这多采多姿的四年级岁月,顺利升上了五年级,然而等待他们的却是一连串的改变,包括学校游乐场被拆了、置物柜被疑除了等等,让他们实在无法适应,尤其他们的导师居然仍然是那一位严厉又古板的Finster老师,这真是让T.J.等人颇为苦恼,且看他们再度发挥搞怪天份,开始他们五年级的精采生活!

Video
ID : 1
Format : AVC
Format/Info : Advanced Video Codec
Format profile : [email protected]
Format settings : CABAC / 4 Ref Frames
Format settings, CABAC : Yes
Format settings, Reference frames : 4 frames
Codec ID : V_MPEG4/ISO/AVC
Duration : 1 h 1 min
Bit rate mode : Variable
Bit rate : 8 479 kb/s
Maximum bit rate : 12.7 Mb/s
Width : 1 920 pixels
Height : 1 080 pixels
Display aspect ratio : 16:9
Frame rate mode : Constant
Frame rate : 23.976 (24000/1001/189150) FPS
Color space : YUV
Chroma subsampling : 4:2:0
Bit depth : 8 bits
Scan type : Progressive
Bits/(Pixel*Frame) : 0.171
Stream size : 3.65 GiB (97%)
Default : Yes
Forced : No
Color range : Limited
Color primaries : BT.709
Transfer characteristics : BT.709
Matrix coefficients : BT.709

Audio
ID : 2
Format : E-AC-3
Format/Info : Enhanced AC-3
Commercial name : Dolby Digital Plus
Codec ID : A_EAC3
Duration : 1 h 1 min
Bit rate mode : Constant
Bit rate : 256 kb/s
Channel(s) : 6 channels
Channel layout : L R C LFE Ls Rs
Sampling rate : 48.0 kHz
Frame rate : 31.250 FPS (1536 SPF)
Compression mode : Lossy
Stream size : 113 MiB (3%)
Title : English
Language : English
Service kind : Complete Main
Default : No
Forced : No

Text
ID : 3
Format : UTF-8
Codec ID : S_TEXT/UTF8
Codec ID/Info : UTF-8 Plain Text
Duration : 1 h 1 min
Bit rate : 128 b/s
Count of elements : 1969
Stream size : 58.1 KiB (0%)
Title : English (SDH)
Language : English
Default : No
Forced : No

悠悠MP4_MP4电影下载_下课后:升上五年级 Recess.Taking.the.5th.Grade.2003.1080p.DSNP.WEBRip.DDP5.1.x264-CURFEW悠悠MP4_MP4电影下载_下课后:升上五年级 Recess.Taking.the.5th.Grade.2003.1080p.DSNP.WEBRip.DDP5.1.x264-CURFEW悠悠MP4_MP4电影下载_下课后:升上五年级 Recess.Taking.the.5th.Grade.2003.1080p.DSNP.WEBRip.DDP5.1.x264-CURFEW


提示:如迅雷下载提示"任务出错"、"因版权无法下载",请尝试【迅雷5】
上传的附件:
最新回复 (0)
返回
本站所有资源均收集自互联网,没有提供影片资源存储, 也未参与录制、上传,若本站收录的资源无意侵犯了您的权益, 请联系邮箱:gogoimgs#gmail.com(#[email protected])