碧血黄沙 Blood.and.Sand.1941.PROPER.720p.BluRay.x264-USURY 2.97GB

uump4 1月前 245

帖子完整标题:碧血黄沙 Blood.and.Sand.1941.PROPER.720p.BluRay.x264-USURY 2.97GB

悠悠MP4_MP4电影下载_碧血黄沙 Blood.and.Sand.1941.PROPER.720p.BluRay.x264-USURY 2.97GB

◎译  名 碧血黄沙
◎片  名 Blood and Sand
◎年  代 1941
◎产  地 美国
◎类  别 剧情 / 运动
◎语  言 英语
◎上映日期 1941-12-19
◎IMDb评分 6.9/10 from 2379 users
◎IMDb链接 https://www.imdb.com/title/tt0033405/
◎豆瓣评分 7.4/10 from 298 users
◎豆瓣链接 https://movie.douban.com/subject/1300114/
◎片  长 125 分钟
◎导  演 鲁本·马莫利安 Rouben Mamoulian
◎编  剧 乔·斯沃林 Jo Swerling
◎主  演 泰隆·鲍华 Tyrone Power
      丽塔·海华斯 Rita Hayworth
      琳达·达内尔 Linda Darnell

◎标  签 美国 | 美国电影 | 丽塔·海华斯 | 名著改编 | 1941 | 剧情 | 爱情 | 泰隆.鲍华

◎简  介

  海华斯扮演一个性感女人,一位社会名流,把一个天真的斗牛士带上邪路。斗牛士背叛了对他无比忠诚的恋人,同时也要面对斗牛场上的凶险……

◎获奖情况

  第14届奥斯卡金像奖 ?(1942)
  彩色片最佳摄影 欧内斯特·帕尔默?/?雷·伦纳汉
  彩色片最佳艺术指导和室内布景(提名) 约瑟夫·C·赖特?/?理查德·戴?/?托马斯·利特尔

Video
ID : 1
Format : AVC
Format/Info : Advanced Video Codec
Format profile : [email protected]
Format settings : CABAC / 11 Ref Frames
Format settings, CABAC : Yes
Format settings, Reference frames : 11 frames
Codec ID : V_MPEG4/ISO/AVC
Duration : 2 h 5 min
Bit rate : 3 161 kb/s
Width : 986 pixels
Height : 720 pixels
Display aspect ratio : 4:3
Frame rate mode : Constant
Frame rate : 23.976 (24000/1001/189150) FPS
Color space : YUV
Chroma subsampling : 4:2:0
Bit depth : 8 bits
Scan type : Progressive
Bits/(Pixel*Frame) : 0.186
Stream size : 2.76 GiB (93%)
Writing library : x264 core 161 r3048 b86ae3c
Encoding settings : cabac=1 / ref=11 / deblock=1:-3:-3 / analyse=0x3:0x133 / me=umh / subme=10 / psy=1 / psy_rd=1.00:0.15 / mixed_ref=1 / me_range=24 / chroma_me=1 / trellis=2 / 8x8dct=1 / cqm=0 / deadzone=21,11 / fast_pskip=1 / chroma_qp_offset=-3 / threads=18 / lookahead_threads=3 / sliced_threads=0 / nr=0 / decimate=1 / interlaced=0 / bluray_compat=0 / constrained_intra=0 / bframes=8 / b_pyramid=2 / b_adapt=2 / b_bias=0 / direct=3 / weightb=1 / open_gop=0 / weightp=2 / keyint=250 / keyint_min=23 / scenecut=40 / intra_refresh=0 / rc_lookahead=60 / rc=crf / mbtree=1 / crf=17.0 / qcomp=0.60 / qpmin=0 / qpmax=69 / qpstep=4 / ip_ratio=1.40 / aq=3:0.50
Language : English
Default : Yes
Forced : No
Color range : Limited
Matrix coefficients : BT.709

Audio
ID : 2
Format : FLAC
Format/Info : Free Lossless Audio Codec
Codec ID : A_FLAC
Duration : 2 h 5 min
Bit rate mode : Variable
Bit rate : 227 kb/s
Channel(s) : 2 channels
Channel layout : L R
Sampling rate : 48.0 kHz
Frame rate : 11.719 FPS (4096 SPF)
Bit depth : 16 bits
Compression mode : Lossless
Stream size : 204 MiB (7%)
Writing library : libFLAC 1.2.1 (UTC 2007-09-17)
Language : English
Default : Yes
Forced : No

Text #1
ID : 3
Format : UTF-8
Codec ID : S_TEXT/UTF8
Codec ID/Info : UTF-8 Plain Text
Duration : 2 h 1 min
Bit rate : 50 b/s
Count of elements : 1147
Stream size : 45.1 KiB (0%)
Title : English
Language : English
Default : No
Forced : No

Text #2
ID : 4
Format : PGS
Muxing mode : zlib
Codec ID : S_HDMV/PGS
Codec ID/Info : Picture based subtitle format used on BDs/HD-DVDs
Duration : 2 h 4 min
Bit rate : 3 971 b/s
Count of elements : 2295
Stream size : 3.52 MiB (0%)
Title : English
Language : English
Default : No
Forced : No

Text #3
ID : 5
Format : UTF-8
Codec ID : S_TEXT/UTF8
Codec ID/Info : UTF-8 Plain Text
Duration : 2 h 1 min
Bit rate : 58 b/s
Count of elements : 1147
Stream size : 52.0 KiB (0%)
Title : German
Language : German
Default : No
Forced : No

Text #4
ID : 6
Format : PGS
Muxing mode : zlib
Codec ID : S_HDMV/PGS
Codec ID/Info : Picture based subtitle format used on BDs/HD-DVDs
Duration : 2 h 4 min
Bit rate : 4 462 b/s
Count of elements : 2295
Stream size : 3.96 MiB (0%)
Title : German
Language : German
Default : No
Forced : No

Menu
00:00:00.000 : en:00:00:00.000
00:01:24.793 : en:00:01:24.793
00:12:39.759 : en:00:12:39.759
00:22:05.366 : en:00:22:05.366
00:31:47.239 : en:00:31:47.239
00:41:52.593 : en:00:41:52.593
00:52:15.716 : en:00:52:15.716
01:08:15.800 : en:01:08:15.800
01:22:58.682 : en:01:22:58.682
01:35:56.584 : en:01:35:56.584
01:51:16.253 : en:01:51:16.253

悠悠MP4_MP4电影下载_碧血黄沙 Blood.and.Sand.1941.PROPER.720p.BluRay.x264-USURY 2.97GB


提示:如迅雷下载提示"任务出错"、"因版权无法下载",请尝试【迅雷5】
上传的附件:
最新回复 (0)
返回
本站所有资源均收集自互联网,没有提供影片资源存储, 也未参与录制、上传,若本站收录的资源无意侵犯了您的权益, 请联系邮箱:gogoimgs#gmail.com(#[email protected])