致命风暴 The.Mortal.Storm.1940.720p.BluRay.x264-USURY 5.57GB

uump4 1月前 169

帖子完整标题:致命风暴 The.Mortal.Storm.1940.720p.BluRay.x264-USURY 5.57GB

悠悠MP4_MP4电影下载_致命风暴 The.Mortal.Storm.1940.720p.BluRay.x264-USURY 5.57GB

◎译  名 致命风暴
◎片  名 The Mortal Storm
◎年  代 1940
◎产  地 美国
◎类  别 剧情
◎语  言 英语
◎上映日期 1940-06-20
◎IMDb评分 7.8/10 from 4594 users
◎IMDb链接 https://www.imdb.com/title/tt0032811/
◎豆瓣评分 7.0/10 from 64 users
◎豆瓣链接 https://movie.douban.com/subject/3146681/
◎片  长 100 分钟
◎导  演 弗兰克·鲍沙其 Frank Borzage
◎编  剧 克劳丁·韦斯特 Claudine West / 汉斯·拉莫 Hans Rameau / 乔治·弗罗斯切尔 George Froeschel
◎主  演 玛格里特·苏利文 Margaret Sullavan
      詹姆斯·斯图尔特 James Stewart
      罗伯特·杨 Robert Young
      波蒂尔·罗辛 Bodil Rosing
      Thomas W. Ross
      罗伯特·斯塔克 Robert Stack
      Dick Rich
      汤姆·德雷克 Tom Drake
      Sue Moore
      玛丽亚·彭斯卡娅 Maria Ouspenskaya
      伯特·罗奇 Bert Roach
      爱莲·列治 Irene Rich
      丹·戴利 Dan Dailey
      Robert R. Stephenson
      Henry Victor
      Julius Tannen
      博妮塔·格兰维利 Bonita Granville
      Robert Willey
      吉恩·雷诺兹 Gene Reynolds
      卢西恩·普里瓦尔 Lucien Prival
      特德·奥利弗 Ted Oliver
      鲁道夫·安德斯 Rudolph Anders
      Granville Bates
      Esther Dale
      沃德·邦德 Ward Bond
      迪克·埃利奥特 Dick Elliott
      Max Davidson
      Harry Depp
      William T. Orr
      威廉·埃德蒙兹 William Edmunds
      Gus Glassmire
      拉塞尔·希克斯 Russell Hicks
      威廉·欧文 William Irving
      Howard Lang
      弗兰克·摩根 Frank Morgan

◎标  签 JamesStewart | 1940s | 美国 | FrankBorzage | 美国电影 | 1940 | 剧情 | 黑白

◎简  介

  The Roth family leads a quiet life in a small village in the German Alps during the early 1930s. When the Nazis come to power, the family is divided and Martin Brietner, a family friend is caught up in the turmoil.

Video
ID : 1
Format : AVC
Format/Info : Advanced Video Codec
Format profile : [email protected]
Format settings : CABAC / 11 Ref Frames
Format settings, CABAC : Yes
Format settings, Reference frames : 11 frames
Codec ID : V_MPEG4/ISO/AVC
Duration : 1 h 40 min
Bit rate : 7 279 kb/s
Width : 990 pixels
Height : 720 pixels
Display aspect ratio : 1.375
Frame rate mode : Constant
Frame rate : 23.976 (24000/1001/189150) FPS
Color space : YUV
Chroma subsampling : 4:2:0
Bit depth : 8 bits
Scan type : Progressive
Bits/(Pixel*Frame) : 0.426
Stream size : 5.11 GiB (92%)
Writing library : x264 core 161 r3048 b86ae3c
Encoding settings : cabac=1 / ref=11 / deblock=1:-3:-3 / analyse=0x3:0x133 / me=umh / subme=10 / psy=1 / psy_rd=1.00:0.15 / mixed_ref=1 / me_range=24 / chroma_me=1 / trellis=2 / 8x8dct=1 / cqm=0 / deadzone=21,11 / fast_pskip=1 / chroma_qp_offset=-3 / threads=18 / lookahead_threads=3 / sliced_threads=0 / nr=0 / decimate=1 / interlaced=0 / bluray_compat=0 / constrained_intra=0 / bframes=8 / b_pyramid=2 / b_adapt=2 / b_bias=0 / direct=3 / weightb=1 / open_gop=0 / weightp=2 / keyint=250 / keyint_min=23 / scenecut=40 / intra_refresh=0 / rc_lookahead=60 / rc=crf / mbtree=1 / crf=17.0 / qcomp=0.60 / qpmin=0 / qpmax=69 / qpstep=4 / ip_ratio=1.40 / aq=3:0.50
Language : English
Default : Yes
Forced : No

Audio
ID : 2
Format : FLAC
Format/Info : Free Lossless Audio Codec
Codec ID : A_FLAC
Duration : 1 h 40 min
Bit rate mode : Variable
Bit rate : 631 kb/s
Channel(s) : 2 channels
Channel layout : L R
Sampling rate : 48.0 kHz
Frame rate : 11.719 FPS (4096 SPF)
Bit depth : 24 bits
Compression mode : Lossless
Stream size : 453 MiB (8%)
Writing library : libFLAC 1.2.1 (UTC 2007-09-17)
Language : English
Default : Yes
Forced : No

Text #1
ID : 3
Format : UTF-8
Codec ID : S_TEXT/UTF8
Codec ID/Info : UTF-8 Plain Text
Duration : 1 h 38 min
Bit rate : 69 b/s
Count of elements : 1564
Stream size : 50.2 KiB (0%)
Title : English
Language : English
Default : No
Forced : No

Text #2
ID : 4
Format : UTF-8
Codec ID : S_TEXT/UTF8
Codec ID/Info : UTF-8 Plain Text
Duration : 1 h 39 min
Bit rate : 73 b/s
Count of elements : 1731
Stream size : 53.8 KiB (0%)
Title : English SDH
Language : English
Default : No
Forced : No

Text #3
ID : 5
Format : PGS
Muxing mode : zlib
Codec ID : S_HDMV/PGS
Codec ID/Info : Picture based subtitle format used on BDs/HD-DVDs
Duration : 1 h 39 min
Bit rate : 20.8 kb/s
Count of elements : 3462
Stream size : 14.9 MiB (0%)
Title : English SDH
Language : English
Default : No
Forced : No

Menu
00:00:00.000 : en:00:00:00.000
00:01:25.419 : en:00:01:25.419
00:02:48.919 : en:00:02:48.919
00:06:49.117 : en:00:06:49.117
00:09:19.934 : en:00:09:19.934
00:14:28.951 : en:00:14:28.951
00:16:49.842 : en:00:16:49.842
00:20:20.010 : en:00:20:20.010
00:21:52.937 : en:00:21:52.937
00:24:28.175 : en:00:24:28.175
00:27:13.590 : en:00:27:13.590
00:29:00.447 : en:00:29:00.447
00:31:51.827 : en:00:31:51.827
00:33:37.098 : en:00:33:37.098
00:35:37.052 : en:00:35:37.052
00:38:12.624 : en:00:38:12.624
00:40:03.651 : en:00:40:03.651
00:41:50.341 : en:00:41:50.341
00:43:41.911 : en:00:43:41.911
00:45:02.491 : en:00:45:02.491
00:46:28.285 : en:00:46:28.285
00:48:42.378 : en:00:48:42.378
00:51:24.248 : en:00:51:24.248
00:53:24.034 : en:00:53:24.034
00:55:33.163 : en:00:55:33.163
00:58:38.974 : en:00:58:38.974
01:00:44.391 : en:01:00:44.391
01:01:55.837 : en:01:01:55.837
01:03:59.878 : en:01:03:59.878
01:05:20.208 : en:01:05:20.208
01:09:13.191 : en:01:09:13.191
01:10:30.935 : en:01:10:30.935
01:12:16.499 : en:01:12:16.499
01:14:58.703 : en:01:14:58.703
01:16:36.467 : en:01:16:36.467
01:17:55.504 : en:01:17:55.504
01:19:17.920 : en:01:19:17.920
01:22:06.130 : en:01:22:06.130
01:25:05.475 : en:01:25:05.475
01:28:27.093 : en:01:28:27.093
01:31:26.940 : en:01:31:26.940
01:33:59.843 : en:01:33:59.843
01:35:24.802 : en:01:35:24.802
01:39:03.062 : en:01:39:03.062
01:39:55.198 : en:01:39:55.198

悠悠MP4_MP4电影下载_致命风暴 The.Mortal.Storm.1940.720p.BluRay.x264-USURY 5.57GB


提示:如迅雷下载提示"任务出错"、"因版权无法下载",请尝试【迅雷5】
上传的附件:
最新回复 (0)
返回
本站所有资源均收集自互联网,没有提供影片资源存储, 也未参与录制、上传,若本站收录的资源无意侵犯了您的权益, 请联系邮箱:gogoimgs#gmail.com(#[email protected])