[2020] [欧美] [其他] [BD-720P] 马丁·路德·金与联邦调查局 MLK.FBI.2020.720p.BluRay.x264-SCARE 6.28GB

uump4 1月前 520

帖子完整标题:马丁·路德·金与联邦调查局 MLK.FBI.2020.720p.BluRay.x264-SCARE 6.28GB

悠悠MP4_MP4电影下载_马丁·路德·金与联邦调查局 MLK.FBI.2020.720p.BluRay.x264-SCARE 6.28GB

◎译  名 马丁·路德·金与联邦调查局
◎片  名 MLK/FBI
◎年  代 2020
◎产  地 美国
◎类  别 纪录片
◎语  言 英语
◎上映日期 2020-09-15(多伦多电影节)
◎IMDb评分  6.9/10 from 574 users
◎IMDb链接  https://www.imdb.com/title/tt12801356/
◎豆瓣评分 /10 from 0 users
◎豆瓣链接 https://movie.douban.com/subject/35162173/
◎片  长 104分钟
◎主  演 马丁·路德·金 Martin Luther King

◎标  签 纪录片 | 美国 | 馬丁路德金 | 电影 | 政治 | 2021期待 | 2020s | 2020

◎简  介

  暂无相关剧情介绍

◎获奖情况

  第45届多伦多国际电影节 ?(2020)
  观众选择奖纪录片单元(提名)
  
  第25届金卫星奖 ?(2021)
  电影部门最佳纪录片(提名)

Video
ID                                       : 1
Format                                   : AVC
Format/Info                              : Advanced Video Codec
Format profile                           : [email protected]
Format settings                          : CABAC / 9 Ref Frames
Format settings, CABAC                   : Yes
Format settings, Reference frames        : 9 frames
Codec ID                                 : V_MPEG4/ISO/AVC
Duration                                 : 1 h 46 min
Bit rate                                 : 7 798 kb/s
Width                                    : 1 280 pixels
Height                                   : 676 pixels
Display aspect ratio                     : 1.893
Frame rate mode                          : Constant
Frame rate                               : 23.976 (24000/1001/189150) FPS
Color space                              : YUV
Chroma subsampling                       : 4:2:0
Bit depth                                : 8 bits
Scan type                                : Progressive
Bits/(Pixel*Frame)                       : 0.376
Stream size                              : 5.78 GiB (92%)
Writing library                          : x264 core 161 r3043 59c0609
Encoding settings                        : cabac=1 / ref=9 / deblock=1:-3:-3 / analyse=0x3:0x133 / me=umh / subme=10 / psy=1 / psy_rd=1.20:0.00 / mixed_ref=1 / me_range=24 / chroma_me=1 / trellis=2 / 8x8dct=1 / cqm=0 / deadzone=21,11 / fast_pskip=0 / chroma_qp_offset=-2 / threads=6 / lookahead_threads=1 / sliced_threads=0 / nr=0 / decimate=0 / interlaced=0 / bluray_compat=0 / constrained_intra=0 / bframes=8 / b_pyramid=2 / b_adapt=2 / b_bias=0 / direct=3 / weightb=1 / open_gop=0 / weightp=2 / keyint=250 / keyint_min=23 / scenecut=40 / intra_refresh=0 / rc_lookahead=60 / rc=crf / mbtree=1 / crf=16.5 / qcomp=0.60 / qpmin=0 / qpmax=69 / qpstep=4 / ip_ratio=1.40 / aq=3:0.90
Default                                  : Yes
Forced                                   : No
Color range                              : Limited
Matrix coefficients                      : BT.709

Audio
ID                                       : 2
Format                                   : AC-3
Format/Info                              : Audio Coding 3
Commercial name                          : Dolby Digital
Codec ID                                 : A_AC3
Duration                                 : 1 h 46 min
Bit rate mode                            : Constant
Bit rate                                 : 640 kb/s
Channel(s)                               : 6 channels
Channel layout                           : L R C LFE Ls Rs
Sampling rate                            : 48.0 kHz
Frame rate                               : 31.250 FPS (1536 SPF)
Compression mode                         : Lossy
Stream size                              : 486 MiB (8%)
Language                                 : English
Service kind                             : Complete Main
Default                                  : Yes
Forced                                   : No

Text
ID                                       : 3
Format                                   : PGS
Muxing mode                              : zlib
Codec ID                                 : S_HDMV/PGS
Codec ID/Info                            : Picture based subtitle format used on BDs/HD-DVDs
Duration                                 : 1 h 42 min
Bit rate                                 : 55.5 kb/s
Count of elements                        : 3366
Stream size                              : 40.8 MiB (1%)
Title                                    : SDH
Language                                 : English
Default                                  : No
Forced                                   : No

Menu
00:00:00.000                             : en:Chapter 01
00:06:12.747                             : en:Chapter 02
00:14:31.579                             : en:Chapter 03
00:20:46.745                             : en:Chapter 04
00:31:26.093                             : en:Chapter 05
00:42:49.776                             : en:Chapter 06
00:55:15.687                             : en:Chapter 07
01:05:04.234                             : en:Chapter 08
01:13:36.495                             : en:Chapter 09
01:24:13.966                             : en:Chapter 10
01:31:01.956                             : en:Chapter 11
01:37:42.023                             : en:Chapter 12


悠悠MP4_MP4电影下载_马丁·路德·金与联邦调查局 MLK.FBI.2020.720p.BluRay.x264-SCARE 6.28GB


提示:如迅雷下载提示"任务出错"、"因版权无法下载",请尝试【迅雷5】
上传的附件:
最新回复 (0)
返回
本站所有资源均收集自互联网,没有提供影片资源存储, 也未参与录制、上传,若本站收录的资源无意侵犯了您的权益, 请联系邮箱:gogoimgs#gmail.com(#[email protected])