[2020] [欧美] [剧情] [WEB-1080P] 索菲·琼斯 Sophie.Jones.2020.1080p.WEB-DL.DD5.1.H264-FGT 3.31GB

uump4 1月前 521

帖子完整标题:索菲·琼斯 Sophie.Jones.2020.1080p.WEB-DL.DD5.1.H264-FGT 3.31GB

悠悠MP4_MP4电影下载_索菲·琼斯 Sophie.Jones.2020.1080p.WEB-DL.DD5.1.H264-FGT 3.31GB

◎译  名 索菲·琼斯
◎片  名 Sophie Jones
◎年  代 2020
◎产  地 美国
◎类  别 剧情
◎语  言 英语
◎上映日期 2010-09-04(法国)
◎IMDb评分  6.5/10 from 56 users
◎IMDb链接  https://www.imdb.com/title/tt8170506/
◎豆瓣评分 /10 from 0 users
◎豆瓣链接 https://movie.douban.com/subject/35208065/
◎片  长 85分钟
◎导  演 杰西·巴尔 Jessie Barr

◎标  签 P-Mar-del-PlataA入围主竞赛

◎简  介

  十六岁的Sophie努力地从母亲的过世中走出来重新感受生活度过高中时光。故事来源于少女真实的悲伤、成长和生活经历。

Video
ID                                       : 1
Format                                   : AVC
Format/Info                              : Advanced Video Codec
Format profile                           : [email protected]
Format settings                          : CABAC / 4 Ref Frames
Format settings, CABAC                   : Yes
Format settings, Reference frames        : 4 frames
Codec ID                                 : V_MPEG4/ISO/AVC
Duration                                 : 1 h 25 min
Bit rate                                 : 5 157 kb/s
Width                                    : 1 916 pixels
Height                                   : 1 076 pixels
Display aspect ratio                     : 16:9
Frame rate mode                          : Constant
Frame rate                               : 23.976 (24000/1001/189150) FPS
Color space                              : YUV
Chroma subsampling                       : 4:2:0
Bit depth                                : 8 bits
Scan type                                : Progressive
Bits/(Pixel*Frame)                       : 0.104
Stream size                              : 3.08 GiB (93%)
Language                                 : English
Default                                  : Yes
Forced                                   : No
Color range                              : Limited
Color primaries                          : BT.709
Transfer characteristics                 : BT.709
Matrix coefficients                      : BT.709

Audio
ID                                       : 2
Format                                   : AC-3
Format/Info                              : Audio Coding 3
Commercial name                          : Dolby Digital
Codec ID                                 : A_AC3
Duration                                 : 1 h 25 min
Bit rate mode                            : Constant
Bit rate                                 : 384 kb/s
Channel(s)                               : 6 channels
Channel layout                           : L R C LFE Ls Rs
Sampling rate                            : 48.0 kHz
Frame rate                               : 31.250 FPS (1536 SPF)
Compression mode                         : Lossy
Stream size                              : 235 MiB (7%)
Language                                 : English
Service kind                             : Complete Main
Default                                  : Yes
Forced                                   : No

Text
ID                                       : 3
Format                                   : UTF-8
Codec ID                                 : S_TEXT/UTF8
Codec ID/Info                            : UTF-8 Plain Text
Duration                                 : 1 h 14 min
Bit rate                                 : 51 b/s
Count of elements                        : 1180
Stream size                              : 28.1 KiB (0%)
Language                                 : English
Default                                  : Yes
Forced                                   : No


悠悠MP4_MP4电影下载_索菲·琼斯 Sophie.Jones.2020.1080p.WEB-DL.DD5.1.H264-FGT 3.31GB悠悠MP4_MP4电影下载_索菲·琼斯 Sophie.Jones.2020.1080p.WEB-DL.DD5.1.H264-FGT 3.31GB悠悠MP4_MP4电影下载_索菲·琼斯 Sophie.Jones.2020.1080p.WEB-DL.DD5.1.H264-FGT 3.31GB


提示:如迅雷下载提示"任务出错"、"因版权无法下载",请尝试【迅雷5】
上传的附件:
最新回复 (0)
返回
本站所有资源均收集自互联网,没有提供影片资源存储, 也未参与录制、上传,若本站收录的资源无意侵犯了您的权益, 请联系邮箱:gogoimgs#gmail.com(#[email protected])