[2011] [欧美] [喜剧] [WEB-1080P] 布鲁克林派对 Turtle.Hill.Brooklyn.2013.1080p.AMZN.WEBRip.DDP5.1.x264-PTP 5.69GB

uump4 9天前 154

帖子完整标题:布鲁克林派对 Turtle.Hill.Brooklyn.2013.1080p.AMZN.WEBRip.DDP5.1.x264-PTP 5.69GB

悠悠MP4_MP4电影下载_布鲁克林派对 Turtle.Hill.Brooklyn.2013.1080p.AMZN.WEBRip.DDP5.1.x264-PTP 5.69GB

◎译  名 布鲁克林派对
◎片  名 Turtle Hill, Brooklyn
◎年  代 2011
◎产  地 美国
◎类  别 喜剧 / 同性
◎语  言 英语
◎上映日期 2013-05-03
◎IMDb评分  5.6/10 from 181 users
◎IMDb链接  https://www.imdb.com/title/tt1854589/
◎豆瓣评分 /10 from 0 users
◎豆瓣链接 https://movie.douban.com/subject/24525218/
◎片  长 95分钟
◎导  演 Ryan Gielen

◎标  签 爱情 | 同性 | 剧情 | 电影 | 美国 | 家庭 | gay

◎简  介

  In the new film TURTLE HILL, BROOKLYN named for the New York neighborhood which provides its setting, a young gay couple prepare for a birthday party that become a night of surprises that will expose unexpected truths about this relationship. TURTLE HILL, BROOKLYN is a funny, sincere, slice of life about a couple just trying to figure it out. Mateo and Will invite their friends over for Will's 30th birthday. After a few surprise visitors, they get through the day, but realize that doubting your partner isn't nearly as scary as doubting yourself.

Video
ID                                       : 1
Format                                   : AVC
Format/Info                              : Advanced Video Codec
Format profile                           : [email protected]
Format settings                          : CABAC / 4 Ref Frames
Format settings, CABAC                   : Yes
Format settings, Reference frames        : 4 frames
Codec ID                                 : V_MPEG4/ISO/AVC
Duration                                 : 1 h 20 min
Bit rate mode                            : Constant
Bit rate                                 : 9 509 kb/s
Nominal bit rate                         : 10 000 kb/s
Width                                    : 1 920 pixels
Height                                   : 1 080 pixels
Display aspect ratio                     : 16:9
Frame rate mode                          : Constant
Frame rate                               : 23.976 (24000/1001/189150) FPS
Color space                              : YUV
Chroma subsampling                       : 4:2:0
Bit depth                                : 8 bits
Scan type                                : Progressive
Bits/(Pixel*Frame)                       : 0.191
Stream size                              : 5.33 GiB (94%)
Default                                  : Yes
Forced                                   : No
Color range                              : Limited
Color primaries                          : BT.709
Transfer characteristics                 : BT.709
Matrix coefficients                      : BT.709

Audio
ID                                       : 2
Format                                   : E-AC-3
Format/Info                              : Enhanced AC-3
Commercial name                          : Dolby Digital Plus
Codec ID                                 : A_EAC3
Duration                                 : 1 h 20 min
Bit rate mode                            : Constant
Bit rate                                 : 640 kb/s
Channel(s)                               : 6 channels
Channel layout                           : L R C LFE Ls Rs
Sampling rate                            : 48.0 kHz
Frame rate                               : 31.250 FPS (1536 SPF)
Compression mode                         : Lossy
Stream size                              : 368 MiB (6%)
Language                                 : English
Service kind                             : Complete Main
Default                                  : Yes
Forced                                   : No

Text
ID                                       : 3
Format                                   : UTF-8
Codec ID                                 : S_TEXT/UTF8
Codec ID/Info                            : UTF-8 Plain Text
Duration                                 : 1 h 20 min
Bit rate                                 : 63 b/s
Count of elements                        : 1617
Stream size                              : 37.3 KiB (0%)
Language                                 : English
Default                                  : No
Forced                                   : No


悠悠MP4_MP4电影下载_布鲁克林派对 Turtle.Hill.Brooklyn.2013.1080p.AMZN.WEBRip.DDP5.1.x264-PTP 5.69GB悠悠MP4_MP4电影下载_布鲁克林派对 Turtle.Hill.Brooklyn.2013.1080p.AMZN.WEBRip.DDP5.1.x264-PTP 5.69GB悠悠MP4_MP4电影下载_布鲁克林派对 Turtle.Hill.Brooklyn.2013.1080p.AMZN.WEBRip.DDP5.1.x264-PTP 5.69GB


提示:如迅雷下载提示"任务出错"、"因版权无法下载",请尝试【迅雷5】
上传的附件:
最新回复 (0)
返回
本站所有资源均收集自互联网,没有提供影片资源存储, 也未参与录制、上传,若本站收录的资源无意侵犯了您的权益, 请联系邮箱:gogoimgs#gmail.com(#[email protected])