[2006] [欧美] [剧情] [WEB-1080P] 最炎热的国度/最炎热的州 The.Hottest.State.2006.1080p.AMZN.WEBRip.DDP2.0.x264-FLUX 9.75GB

uump4 9天前 204

帖子完整标题:最炎热的国度/最炎热的州 The.Hottest.State.2006.1080p.AMZN.WEBRip.DDP2.0.x264-FLUX 9.75GB

悠悠MP4_MP4电影下载_最炎热的国度/最炎热的州 The.Hottest.State.2006.1080p.AMZN.WEBRip.DDP2.0.x264-FLUX 9.75GB

◎译  名 最炎热的国度/最炎热的州/热力四射
◎片  名 The Hottest State
◎年  代 2006
◎产  地 美国
◎类  别 剧情
◎语  言 英语
◎上映日期 2006-09-02
◎IMDb评分  6.1/10 from 2653 users
◎IMDb链接  https://www.imdb.com/title/tt0496319/
◎豆瓣评分 7.8/10 from 1339 users
◎豆瓣链接 https://movie.douban.com/subject/1865009/
◎片  长 117 分钟
◎导  演 伊桑·霍克 Ethan Hawke
◎编  剧 伊桑·霍克 Ethan Hawke
◎主  演 马克·韦伯 Mark Webber
       丹尼尔·罗斯 Daniel Ross
       格伦·鲍威尔 Glen Powell
       谢拉米·李 Cherami Leigh
       卡塔利娜·桑迪诺·莫雷诺 Catalina Sandino Moreno
       乔什·祖克曼 Josh Zuckerman
       米歇尔·威廉姆斯 Michelle Williams
       亚历珊德拉·达达里奥 Alexandra Daddario
       伊桑·霍克 Ethan Hawke
       Ben Hamby
       李·米勒 Lee Miller
       弗兰克·威利 Frank Whaley
       理查德·林克莱特 Richard Linklater
       约翰·帕特里克·尚利 John Patrick Shanley
       乔纳森·马克·谢尔曼 Jonathan Marc Sherman
       劳拉·琳妮 Laura Linney
       索尼娅·布拉加 Sonia Braga
       史蒂文·韦斯 Steven Weisz

◎标  签 EthanHawke | 美国 | 爱情 | 文艺 | 美国电影 | 伊桑·霍克 | 青春 | 2007

◎简  介

  一个是来自田纳西、想要在纽约崭露头角的年轻演员,一个是美丽的歌手兼歌曲作者,这样的两个年轻人之间究竟会擦出什么样的爱情火花呢?
  
  根据美国演员兼导演伊桑·霍克(Ethan Hawke)的同名小说改编,影片讲述了一个是来自田纳西、想要在纽约崭露头角的年轻演员,一个是美丽的歌手兼歌曲作者,这样的两个年轻人之间究竟会擦出什么样的爱情火花的故事。
  
  小说当年曾狂卖40万本,如今又由伊桑·霍克本人亲自导演此片,令人期待!

◎获奖情况

  第63届威尼斯电影节 ?(2006)
  地平线单元奖最佳影片(提名) 伊桑·霍克

Video
ID                                       : 1
Format                                   : AVC
Format/Info                              : Advanced Video Codec
Format profile                           : [email protected]
Format settings                          : CABAC / 4 Ref Frames
Format settings, CABAC                   : Yes
Format settings, Reference frames        : 4 frames
Codec ID                                 : V_MPEG4/ISO/AVC
Duration                                 : 1 h 56 min
Bit rate                                 : 11.5 Mb/s
Width                                    : 1 920 pixels
Height                                   : 1 080 pixels
Display aspect ratio                     : 16:9
Frame rate mode                          : Constant
Frame rate                               : 23.976 (24000/1001/189150) FPS
Color space                              : YUV
Chroma subsampling                       : 4:2:0
Bit depth                                : 8 bits
Scan type                                : Progressive
Bits/(Pixel*Frame)                       : 0.232
Stream size                              : 9.38 GiB (96%)
Writing library                          : AVC Coding
Default                                  : Yes
Forced                                   : No
Color range                              : Limited
Color primaries                          : BT.709
Transfer characteristics                 : BT.709
Matrix coefficients                      : BT.709

Audio
ID                                       : 2
Format                                   : E-AC-3
Format/Info                              : Enhanced AC-3
Commercial name                          : Dolby Digital Plus
Codec ID                                 : A_EAC3
Duration                                 : 1 h 56 min
Bit rate mode                            : Constant
Bit rate                                 : 224 kb/s
Channel(s)                               : 2 channels
Channel layout                           : L R
Sampling rate                            : 48.0 kHz
Frame rate                               : 31.250 FPS (1536 SPF)
Bit depth                                : 32 bits
Compression mode                         : Lossy
Stream size                              : 187 MiB (2%)
Language                                 : English
Service kind                             : Complete Main
Default                                  : Yes
Forced                                   : No

Text
ID                                       : 3
Format                                   : UTF-8
Codec ID                                 : S_TEXT/UTF8
Codec ID/Info                            : UTF-8 Plain Text
Duration                                 : 1 h 56 min
Language                                 : English
Default                                  : Yes
Forced                                   : No


悠悠MP4_MP4电影下载_最炎热的国度/最炎热的州 The.Hottest.State.2006.1080p.AMZN.WEBRip.DDP2.0.x264-FLUX 9.75GB悠悠MP4_MP4电影下载_最炎热的国度/最炎热的州 The.Hottest.State.2006.1080p.AMZN.WEBRip.DDP2.0.x264-FLUX 9.75GB


提示:如迅雷下载提示"任务出错"、"因版权无法下载",请尝试【迅雷5】
上传的附件:
最新回复 (0)
返回
本站所有资源均收集自互联网,没有提供影片资源存储, 也未参与录制、上传,若本站收录的资源无意侵犯了您的权益, 请联系邮箱:gogoimgs#gmail.com(#[email protected])