[2020] [其他] [剧情] [WEB-1080P] 同學麥娜絲 Classmates.Minus.2020.CHINESE.1080p.WEBRip.x264-VXT 2.34GB

uump4 12天前 409

帖子完整标题:同學麥娜絲 Classmates.Minus.2020.CHINESE.1080p.WEBRip.x264-VXT 2.34GB

悠悠MP4_MP4电影下载_同學麥娜絲 Classmates.Minus.2020.CHINESE.1080p.WEBRip.x264-VXT 2.34GB

◎译  名 同学麦娜丝/Classmates Minus
◎片  名 同學麥娜絲
◎年  代 2020
◎产  地 中国台湾
◎类  别 剧情 / 喜剧
◎语  言 闽南语,汉语普通话,日语
◎上映日期 2020-11-05(台北金马影展) / 2020-11-20(中国台湾) / 2021-02-20(中国台湾网络)
◎IMDb评分  7.6/10 from 366 users
◎IMDb链接  https://www.imdb.com/title/tt12899858/
◎豆瓣评分 7.7/10 from 9738 users
◎豆瓣链接 https://movie.douban.com/subject/34902639/
◎片  长 122分钟
◎导  演 黄信尧 Hsin-yao Huang
◎编  剧 黄信尧 Hsin-yao Huang
◎主  演 施名帅 Ming-Shuai Shih
       郑人硕 Rexen Cheng
       纳豆 Na Dow
       刘冠廷 Kuan-ting Liu
       陈以文 Yiwen Chen
       王彩桦 Lotus Wang
       潘慧如 Ada Pan
       洪小玲 Jennifer Ling Hung
       朱芷莹 Chih-ying Chu
       郑宇彤 Evelyn Yu-Tong Cheng
       汤志伟 Chih Wei Tang
       蓝苇华 Wei-Hua Lan
       林义雄 Yi-Hung Lam
       加藤鹰 Taka Kat?
       陈俊成 Chuncheng Chen
       黄信尧 Hsin-yao Huang
       庄益增 Cres Chuang
       安乙荞 Joanne Yang

◎标  签 台湾 | 黄信尧 | 台湾电影 | 2020 | 中国台湾 | 剧情 | 郑人硕 | 臺灣臺灣

◎简  介

  四个高中同学毕业后常常聚在泡沫红茶店刁牌、唬烂三小,但聚会后他们还是要继续面对生活的艰难:电风(郑人硕饰)是保险业务员,领着微薄薪水省吃俭用买了新房,因为女友怀孕将步入婚姻的人生阶段;从事纸扎屋行业又有阴阳眼的闭结(刘冠廷饰),因长期照顾卧病在床的阿嬷错过婚姻,想寻求婚姻介绍所找一个好女人结婚;罐头(纳豆饰)在一次吞药自杀后洗心革面,接下了户政所的工作,因此与他心目中的女神校花麦娜丝重逢;添仔(施名帅饰)是怀才不遇的导演,却在机缘下被政客(陈以文饰)相中开始选举之路…

Video
ID                                       : 1
Format                                   : AVC
Format/Info                              : Advanced Video Codec
Format profile                           : [email protected]
Format settings                          : CABAC / 4 Ref Frames
Format settings, CABAC                   : Yes
Format settings, Reference frames        : 4 frames
Codec ID                                 : avc1
Codec ID/Info                            : Advanced Video Coding
Duration                                 : 2 h 2 min
Bit rate                                 : 2 500 kb/s
Width                                    : 1 920 pixels
Height                                   : 800 pixels
Display aspect ratio                     : 2.40:1
Frame rate mode                          : Constant
Frame rate                               : 24.000 FPS
Color space                              : YUV
Chroma subsampling                       : 4:2:0
Bit depth                                : 8 bits
Scan type                                : Progressive
Bits/(Pixel*Frame)                       : 0.068
Stream size                              : 2.14 GiB (92%)
Writing library                          : x264 core 152 r2851M ba24899
Encoding settings                        : cabac=1 / ref=4 / deblock=1:-1:-1 / analyse=0x3:0x113 / me=umh / subme=9 / psy=1 / psy_rd=1.00:0.15 / mixed_ref=1 / me_range=24 / chroma_me=1 / trellis=2 / 8x8dct=1 / cqm=0 / deadzone=21,11 / fast_pskip=1 / chroma_qp_offset=-3 / threads=16 / lookahead_threads=4 / sliced_threads=0 / nr=0 / decimate=1 / interlaced=0 / bluray_compat=0 / constrained_intra=0 / bframes=3 / b_pyramid=2 / b_adapt=2 / b_bias=0 / direct=3 / weightb=1 / open_gop=0 / weightp=2 / keyint=250 / keyint_min=25 / scenecut=40 / intra_refresh=0 / rc_lookahead=50 / rc=2pass / mbtree=1 / bitrate=2500 / ratetol=1.0 / qcomp=0.60 / qpmin=0 / qpmax=69 / qpstep=4 / cplxblur=20.0 / qblur=0.5 / vbv_maxrate=31250 / vbv_bufsize=31250 / nal_hrd=none / filler=0 / ip_ratio=1.40 / aq=3:1.00
Encoded date                             : UTC 2021-02-22 18:44:39
Tagged date                              : UTC 2021-02-22 18:44:39
Codec configuration box                  : avcC

Audio
ID                                       : 2
Format                                   : AAC LC
Format/Info                              : Advanced Audio Codec Low Complexity
Codec ID                                 : mp4a-40-2
Duration                                 : 2 h 2 min
Duration_LastFrame                       : -11 ms
Bit rate mode                            : Constant
Bit rate                                 : 224 kb/s
Channel(s)                               : 6 channels
Channel layout                           : C L R Ls Rs LFE
Sampling rate                            : 48.0 kHz
Frame rate                               : 46.875 FPS (1024 SPF)
Compression mode                         : Lossy
Stream size                              : 197 MiB (8%)
Language                                 : Chinese
Default                                  : Yes
Alternate group                          : 1
Encoded date                             : UTC 2021-02-22 18:44:39
Tagged date                              : UTC 2021-02-22 18:44:39


悠悠MP4_MP4电影下载_同學麥娜絲 Classmates.Minus.2020.CHINESE.1080p.WEBRip.x264-VXT 2.34GB


提示:如迅雷下载提示"任务出错"、"因版权无法下载",请尝试【迅雷5】
上传的附件:
最新回复 (1)
  • hyh553 12天前
    2
    下不了~~~~~
返回
本站所有资源均收集自互联网,没有提供影片资源存储, 也未参与录制、上传,若本站收录的资源无意侵犯了您的权益, 请联系邮箱:gogoimgs#gmail.com(#[email protected])