[2019] [欧美] [其他] [WEB-1080P] 老虎来喝下午茶 The.Tiger.Who.Came.to.Tea.2019.1080p.AMZN.WEBRip.DDP5.1.x264-tobias 1.65

uump4 8天前 125

帖子完整标题:老虎来喝下午茶 The.Tiger.Who.Came.to.Tea.2019.1080p.AMZN.WEBRip.DDP5.1.x264-tobias 1.65GB

悠悠MP4_MP4电影下载_老虎来喝下午茶 The.Tiger.Who.Came.to.Tea.2019.1080p.AMZN.WEBRip.DDP5.1.x264-tobias 1.65

◎译  名 老虎来喝下午茶
◎片  名 The Tiger Who Came to Tea
◎年  代 2019
◎产  地 英国
◎类  别 动画 / 短片
◎语  言 英语
◎上映日期 2019-12-24(英国)
◎IMDb评分  6.8/10 from 572 users
◎IMDb链接  https://www.imdb.com/title/tt8010354/
◎豆瓣评分 7.7/10 from 1026 users
◎豆瓣链接 https://movie.douban.com/subject/34771470/
◎片  长 23分钟
◎编  剧 朱迪斯·克尔 Judith Kerr
◎主  演 本尼迪克特·康伯巴奇 Benedict Cumberbatch
       塔姆辛·格雷格 Tamsin Greig
       大卫·奥伊罗 David Oyelowo
       大卫·威廉姆斯 David Walliams
       保罗·怀特豪斯 Paul Whitehouse

◎标  签 英国 | 动画 | 短片 | 动画短片 | 2019 | 温情 | 治愈 | 绘本改编

◎简  介

  故事改编自朱迪斯·克尔创作的同名绘本童书,讲述索菲与母亲在厨房喝下午茶,突然门铃响了。索菲开门发现是一只老虎在门前,于是索菲邀请老虎一起来喝下午茶。

◎获奖情况

  第30届安锡国际动画节 ?(2020)
  电视及广告动画单元电视特别节目评审奖

Video
ID                                       : 1
Format                                   : AVC
Format/Info                              : Advanced Video Codec
Format profile                           : [email protected]
Format settings                          : CABAC / 4 Ref Frames
Format settings, CABAC                   : Yes
Format settings, Reference frames        : 4 frames
Codec ID                                 : V_MPEG4/ISO/AVC
Duration                                 : 24 min 13 s
Bit rate mode                            : Constant
Bit rate                                 : 9 089 kb/s
Nominal bit rate                         : 10 000 kb/s
Width                                    : 1 920 pixels
Height                                   : 1 080 pixels
Display aspect ratio                     : 16:9
Frame rate mode                          : Constant
Frame rate                               : 25.000 FPS
Color space                              : YUV
Chroma subsampling                       : 4:2:0
Bit depth                                : 8 bits
Scan type                                : Progressive
Bits/(Pixel*Frame)                       : 0.175
Stream size                              : 1.54 GiB (93%)
Default                                  : Yes
Forced                                   : No
Color range                              : Limited
Color primaries                          : BT.709
Transfer characteristics                 : BT.709
Matrix coefficients                      : BT.709

Audio
ID                                       : 2
Format                                   : E-AC-3
Format/Info                              : Enhanced AC-3
Commercial name                          : Dolby Digital Plus
Codec ID                                 : A_EAC3
Duration                                 : 24 min 13 s
Bit rate mode                            : Constant
Bit rate                                 : 640 kb/s
Channel(s)                               : 6 channels
Channel layout                           : L R C LFE Ls Rs
Sampling rate                            : 48.0 kHz
Frame rate                               : 31.250 FPS (1536 SPF)
Compression mode                         : Lossy
Stream size                              : 111 MiB (7%)
Title                                    : English
Language                                 : English
Service kind                             : Complete Main
Default                                  : Yes
Forced                                   : No

Text
ID                                       : 3
Format                                   : UTF-8
Codec ID                                 : S_TEXT/UTF8
Codec ID/Info                            : UTF-8 Plain Text
Duration                                 : 23 min 19 s
Bit rate                                 : 44 b/s
Count of elements                        : 289
Stream size                              : 7.52 KiB (0%)
Title                                    : English [SDH]
Language                                 : English
Default                                  : No
Forced                                   : No


悠悠MP4_MP4电影下载_老虎来喝下午茶 The.Tiger.Who.Came.to.Tea.2019.1080p.AMZN.WEBRip.DDP5.1.x264-tobias 1.65悠悠MP4_MP4电影下载_老虎来喝下午茶 The.Tiger.Who.Came.to.Tea.2019.1080p.AMZN.WEBRip.DDP5.1.x264-tobias 1.65悠悠MP4_MP4电影下载_老虎来喝下午茶 The.Tiger.Who.Came.to.Tea.2019.1080p.AMZN.WEBRip.DDP5.1.x264-tobias 1.65


提示:如迅雷下载提示"任务出错"、"因版权无法下载",请尝试【迅雷5】
上传的附件:
最新回复 (0)
返回
本站所有资源均收集自互联网,没有提供影片资源存储, 也未参与录制、上传,若本站收录的资源无意侵犯了您的权益, 请联系邮箱:gogoimgs#gmail.com(#[email protected])