[2015] [其他] [剧情] [BD-1080P] 星期三4点45分 Wednesday.04.45.2015.1080p.BluRay.x264-USURY 7.42GB

uump4 1月前 275

帖子完整标题:星期三4点45分 Wednesday.04.45.2015.1080p.BluRay.x264-USURY 7.42GB



◎译  名 星期三4点45分/Wednesday 04:45
◎片  名 Tetarti 04:45
◎年  代 2015
◎产  地 希腊/德国/以色列
◎类  别 剧情 / 惊悚 / 犯罪
◎语  言 希腊语,德语,罗马尼亚语
◎上映日期 2015-03-12
◎IMDb评分  6.8/10 from 1291 users
◎IMDb链接  https://www.imdb.com/title/tt3737988/
◎豆瓣评分 /10 from 0 users
◎豆瓣链接 https://movie.douban.com/subject/26364391/
◎片  长 116分钟
◎导  演 Alexis Alexiou
◎主  演 亚当·布斯多柯斯 Adam Bousdoukos

◎标  签 希腊 | 独立电影 | 2015 | 欧洲电影 | 欧洲 | 文艺 | 德国 | P-KarlovyVaryB入围西方之东

◎简  介

  当一个一个臭名昭著的罗马尼亚黑帮向爵士乐俱乐部老板Stelios催缴贷款时,他为之奋斗一生的事业变成了一个锁住他的囚笼。这部扣人心弦的黑社会题材电影深含寓意,刻画了一个背负巨额债务、看似体面的人如何走向沦陷与堕落的故事。导演Alexis Alexiou非常完美的诠释了主 人公采取极端措施背后的复杂情绪。

◎获奖情况

  第50届卡罗维发利国际电影节 ?(2015)
  EastoftheWestAward(提名) AlexisAlexiou

Video
ID                                       : 1
Format                                   : AVC
Format/Info                              : Advanced Video Codec
Format profile                           : [email protected]
Format settings                          : CABAC / 5 Ref Frames
Format settings, CABAC                   : Yes
Format settings, Reference frames        : 5 frames
Codec ID                                 : V_MPEG4/ISO/AVC
Duration                                 : 1 h 56 min
Bit rate                                 : 7 249 kb/s
Width                                    : 1 920 pixels
Height                                   : 786 pixels
Display aspect ratio                     : 2.40:1
Frame rate mode                          : Constant
Frame rate                               : 24.000 FPS
Color space                              : YUV
Chroma subsampling                       : 4:2:0
Bit depth                                : 8 bits
Scan type                                : Progressive
Bits/(Pixel*Frame)                       : 0.200
Stream size                              : 5.90 GiB (80%)
Writing library                          : x264 core 161 r3027 4121277
Encoding settings                        : cabac=1 / ref=5 / deblock=1:-3:-3 / analyse=0x3:0x133 / me=umh / subme=10 / psy=1 / psy_rd=1.00:0.15 / mixed_ref=1 / me_range=24 / chroma_me=1 / trellis=2 / 8x8dct=1 / cqm=0 / deadzone=21,11 / fast_pskip=1 / chroma_qp_offset=-3 / threads=18 / lookahead_threads=3 / sliced_threads=0 / nr=0 / decimate=1 / interlaced=0 / bluray_compat=0 / constrained_intra=0 / bframes=8 / b_pyramid=2 / b_adapt=2 / b_bias=0 / direct=3 / weightb=1 / open_gop=0 / weightp=2 / keyint=250 / keyint_min=24 / scenecut=40 / intra_refresh=0 / rc_lookahead=60 / rc=crf / mbtree=1 / crf=17.0 / qcomp=0.60 / qpmin=0 / qpmax=69 / qpstep=4 / ip_ratio=1.40 / aq=3:0.60
Language                                 : English
Default                                  : Yes
Forced                                   : No
Color range                              : Limited
Matrix coefficients                      : BT.709

Audio
ID                                       : 2
Format                                   : DTS XLL
Format/Info                              : Digital Theater Systems
Commercial name                          : DTS-HD Master Audio
Codec ID                                 : A_DTS
Duration                                 : 1 h 56 min
Bit rate mode                            : Variable
Bit rate                                 : 1 846 kb/s
Channel(s)                               : 6 channels
Channel layout                           : C L R Ls Rs LFE
Sampling rate                            : 48.0 kHz
Frame rate                               : 93.750 FPS (512 SPF)
Bit depth                                : 16 bits
Compression mode                         : Lossless
Stream size                              : 1.50 GiB (20%)
Language                                 : Greek
Default                                  : Yes
Forced                                   : No

Text #1
ID                                       : 3
Format                                   : UTF-8
Codec ID                                 : S_TEXT/UTF8
Codec ID/Info                            : UTF-8 Plain Text
Duration                                 : 1 h 52 min
Bit rate                                 : 50 b/s
Count of elements                        : 1268
Stream size                              : 41.6 KiB (0%)
Title                                    : English
Language                                 : English
Default                                  : Yes
Forced                                   : Yes

Text #2
ID                                       : 4
Format                                   : PGS
Muxing mode                              : zlib
Codec ID                                 : S_HDMV/PGS
Codec ID/Info                            : Picture based subtitle format used on BDs/HD-DVDs
Duration                                 : 1 h 52 min
Bit rate                                 : 7 758 b/s
Count of elements                        : 1805
Stream size                              : 6.24 MiB (0%)
Title                                    : English
Language                                 : English
Default                                  : No
Forced                                   : No

Text #3
ID                                       : 5
Format                                   : UTF-8
Codec ID                                 : S_TEXT/UTF8
Codec ID/Info                            : UTF-8 Plain Text
Duration                                 : 1 h 52 min
Bit rate                                 : 50 b/s
Count of elements                        : 1252
Stream size                              : 41.3 KiB (0%)
Title                                    : German
Language                                 : German
Default                                  : No
Forced                                   : No

Text #4
ID                                       : 6
Format                                   : PGS
Muxing mode                              : zlib
Codec ID                                 : S_HDMV/PGS
Codec ID/Info                            : Picture based subtitle format used on BDs/HD-DVDs
Duration                                 : 1 h 52 min
Bit rate                                 : 7 761 b/s
Count of elements                        : 2504
Stream size                              : 6.26 MiB (0%)
Title                                    : German
Language                                 : German
Default                                  : No
Forced                                   : No

Menu
00:00:00.000                             : en:00:00:00.000
00:07:11.375                             : en:00:07:11.375
00:11:41.833                             : en:00:11:41.833
00:20:55.125                             : en:00:20:55.125
00:28:33.792                             : en:00:28:33.792
00:38:58.250                             : en:00:38:58.250
00:49:11.250                             : en:00:49:11.250
01:00:05.375                             : en:01:00:05.375
01:04:51.625                             : en:01:04:51.625
01:10:03.708                             : en:01:10:03.708
01:16:37.083                             : en:01:16:37.083
01:24:56.333                             : en:01:24:56.333
01:32:01.917                             : en:01:32:01.917
01:38:28.292                             : en:01:38:28.292
01:47:09.958                             : en:01:47:09.958
01:52:42.792                             : en:01:52:42.792





提示:如迅雷下载提示"任务出错"、"因版权无法下载",请尝试【迅雷5】
上传的附件:
最新回复 (0)
返回
本站所有资源均收集自互联网,没有提供影片资源存储, 也未参与录制、上传,若本站收录的资源无意侵犯了您的权益, 请联系邮箱:gogoimgs#gmail.com(#[email protected])