[更早] [其他] [剧情] [WEB-1080P] 烽烟岁月/A级控诉 Ararat.2002.1080p.AMZN.WEBRip.DDP2.0.x264-PLiSSKEN 11.51GB

uump4 4天前 179

帖子完整标题:烽烟岁月/A级控诉 Ararat.2002.1080p.AMZN.WEBRip.DDP2.0.x264-PLiSSKEN 11.51GB



◎译  名 烽烟岁月/A级控诉(台)/阿勒山/阿拉拉特/阿拉若山
◎片  名 Ararat
◎年  代 2002
◎产  地 加拿大,法国
◎类  别 剧情 / 战争
◎语  言 英语,法语,德语,土耳其语,亚美尼亚语
◎上映日期 2002-09-04
◎IMDb评分  6.2/10 from 13984 users
◎IMDb链接  https://www.imdb.com/title/tt0273435/
◎豆瓣评分 7.7/10 from 242 users
◎豆瓣链接 https://movie.douban.com/subject/1307190/
◎片  长 USA: 115 分钟
◎导  演 阿托姆·伊戈扬 Atom Egoyan
◎编  剧 阿托姆·伊戈扬 Atom Egoyan
◎主  演 阿欣妮·哈尼安 Arsinée Khanjian
       克里斯托弗·普卢默 Christopher Plummer
       西蒙·阿布卡瑞安 Simon Abkarian
       夏尔·阿兹纳夫 Charles Aznavour
       埃里克·博高森 Eric Bogosian
       Erica Ehm
       布鲁斯·格林伍德 Bruce Greenwood
       雷欧·巴奈扎 Raoul Bhaneja
       伊莱亚斯·科泰斯 Elias Koteas
       Shahan Bulat-Matossian
       Sevaan Franks
       玛丽-乔西·克罗兹 Marie-Josée Croze
       马克斯·莫罗 Max Morrow
       卡洛·厄萨吉安 Carlo Essagian
       布伦特·卡沃 Brent Carver

◎标  签 加拿大 | 亚美尼亚 | 历史 | 加拿大电影 | AtomEgoyan | 政治 | 2002 | Atom_Egoyan

◎简  介

  加拿大青年拉菲(David Alpay 饰)是亚美尼亚后裔,他的母亲安妮(Arsinée Khanjian 饰)是艺术史学者,最近新发表了关于亚美尼亚画家高基的著作。拉菲的女友西莉娅是继父的女儿,他的亲生父亲则死于行刺土耳其驻加拿大大使,西莉娅认为父亲的跳崖完全因为安妮,在公开场合对她的研究成果百般诘难。
  
  导演索拉杨正在筹拍一部关于亚美尼亚大屠杀的影片,由于计划将少年时期的高基写入剧情,遂邀请安妮担任顾问,拉菲得以进入剧组帮手。拉菲将胶片带回加拿大时被海关安检扣留,因为女友有贩毒记录,拉菲一时难以脱身,开始向安检员讲述电影内容:1915年,土耳其军队包围凡城,破城后在亚美尼亚的圣山阿拉若山脚下展开了对亚美尼亚人的血腥屠杀……
  
  本片获2003年吉尼奖最佳配乐、最佳艺术设计等多项褒奖。时空交错的剧本结构尤为精巧。

Video
ID                                       : 1
Format                                   : AVC
Format/Info                              : Advanced Video Codec
Format profile                           : [email protected]
Format settings                          : CABAC / 4 Ref Frames
Format settings, CABAC                   : Yes
Format settings, Reference frames        : 4 frames
Codec ID                                 : V_MPEG4/ISO/AVC
Duration                                 : 1 h 55 min
Bit rate                                 : 14.0 Mb/s
Width                                    : 1 920 pixels
Height                                   : 1 080 pixels
Display aspect ratio                     : 16:9
Frame rate mode                          : Constant
Frame rate                               : 24.000 FPS
Color space                              : YUV
Chroma subsampling                       : 4:2:0
Bit depth                                : 8 bits
Scan type                                : Progressive
Bits/(Pixel*Frame)                       : 0.282
Stream size                              : 11.3 GiB (98%)
Default                                  : Yes
Forced                                   : No
Color range                              : Limited
Color primaries                          : BT.709
Transfer characteristics                 : BT.709
Matrix coefficients                      : BT.709

Audio
ID                                       : 2
Format                                   : E-AC-3
Format/Info                              : Enhanced AC-3
Commercial name                          : Dolby Digital Plus
Codec ID                                 : A_EAC3
Duration                                 : 1 h 55 min
Bit rate mode                            : Constant
Bit rate                                 : 224 kb/s
Channel(s)                               : 2 channels
Channel layout                           : L R
Sampling rate                            : 48.0 kHz
Frame rate                               : 31.250 FPS (1536 SPF)
Compression mode                         : Lossy
Stream size                              : 185 MiB (2%)
Service kind                             : Complete Main
Default                                  : Yes
Forced                                   : No

Text
ID                                       : 3
Format                                   : UTF-8
Codec ID                                 : S_TEXT/UTF8
Codec ID/Info                            : UTF-8 Plain Text
Duration                                 : 1 h 51 min
Bit rate                                 : 54 b/s
Count of elements                        : 1446
Stream size                              : 44.3 KiB (0%)
Title                                    : SDH
Language                                 : English
Default                                  : No
Forced                                   : No





提示:如迅雷下载提示"任务出错"、"因版权无法下载",请尝试【迅雷5】
上传的附件:
最新回复 (0)
返回
本站所有资源均收集自互联网,没有提供影片资源存储, 也未参与录制、上传,若本站收录的资源无意侵犯了您的权益, 请联系邮箱:gogoimgs#gmail.com(#[email protected])