[2016] [欧美] [纪录] [WEB-1080P] 纳帕酿酒之旅 Decanted.2016.1080p.AMZN.WEBRip.DDP5.1.x264-LPAIN 4.03GB

uump4 4天前 179

帖子完整标题:纳帕酿酒之旅 Decanted.2016.1080p.AMZN.WEBRip.DDP5.1.x264-LPAIN 4.03GB



◎译  名 纳帕酿酒之旅
◎片  名 Decanted
◎年  代 2016
◎产  地 美国
◎类  别 纪录片
◎语  言 英语
◎上映日期 2016(美国)
◎IMDb评分  5.8/10 from 195 users
◎IMDb链接  https://www.imdb.com/title/tt6085362/
◎豆瓣评分 /10 from 0 users
◎豆瓣链接 https://movie.douban.com/subject/27132317/
◎片  长 78分钟

◎标  签 纪录片 | 葡萄酒 | 美国 | Napa | wine | Valley | 纪录 | 红酒

◎简  介

  看看世界上最亲密的葡萄酒产区之一纳帕谷,我们跟随镜头开始和掌握一门手艺的旅程。@www.renrendianyingwang.cn

Video
ID                                       : 1
Format                                   : AVC
Format/Info                              : Advanced Video Codec
Format profile                           : [email protected]
Format settings                          : CABAC / 4 Ref Frames
Format settings, CABAC                   : Yes
Format settings, Reference frames        : 4 frames
Codec ID                                 : V_MPEG4/ISO/AVC
Duration                                 : 1 h 18 min
Bit rate                                 : 6 743 kb/s
Width                                    : 1 920 pixels
Height                                   : 1 080 pixels
Display aspect ratio                     : 16:9
Frame rate mode                          : Constant
Frame rate                               : 23.976 (24000/1001/189150) FPS
Color space                              : YUV
Chroma subsampling                       : 4:2:0
Bit depth                                : 8 bits
Scan type                                : Progressive
Bits/(Pixel*Frame)                       : 0.136
Stream size                              : 3.68 GiB (91%)
Language                                 : English
Default                                  : Yes
Forced                                   : No
Color range                              : Limited
Color primaries                          : BT.709
Transfer characteristics                 : BT.709
Matrix coefficients                      : BT.709

Audio
ID                                       : 2
Format                                   : E-AC-3
Format/Info                              : Enhanced AC-3
Commercial name                          : Dolby Digital Plus
Codec ID                                 : A_EAC3
Duration                                 : 1 h 18 min
Bit rate mode                            : Constant
Bit rate                                 : 640 kb/s
Channel(s)                               : 6 channels
Channel layout                           : L R C LFE Ls Rs
Sampling rate                            : 48.0 kHz
Frame rate                               : 31.250 FPS (1536 SPF)
Compression mode                         : Lossy
Stream size                              : 358 MiB (9%)
Language                                 : English
Service kind                             : Complete Main
Default                                  : Yes
Forced                                   : No

Text
ID                                       : 3
Format                                   : UTF-8
Codec ID                                 : S_TEXT/UTF8
Codec ID/Info                            : UTF-8 Plain Text
Duration                                 : 1 h 15 min
Bit rate                                 : 86 b/s
Count of elements                        : 1218
Stream size                              : 48.1 KiB (0%)
Language                                 : English
Default                                  : Yes
Forced                                   : No





提示:如迅雷下载提示"任务出错"、"因版权无法下载",请尝试【迅雷5】
上传的附件:
最新回复 (0)
返回
本站所有资源均收集自互联网,没有提供影片资源存储, 也未参与录制、上传,若本站收录的资源无意侵犯了您的权益, 请联系邮箱:gogoimgs#gmail.com(#[email protected])