[更早] [其他] [其他] [WEB-1080P] 维和人员/Le prix de la paix(法) The.Peacekeepers.2005.1080p.WEBRip.AAC2.0.x264-NOGRP

uump4 4天前 131

帖子完整标题:维和人员/Le prix de la paix(法) The.Peacekeepers.2005.1080p.WEBRip.AAC2.0.x264-NOGRP 2.37GB



◎译  名 维和人员/Le prix de la paix(法)
◎片  名 The Peacekeepers
◎年  代 2005
◎产  地 加拿大,法国
◎类  别 纪录片
◎语  言 英语,法语
◎上映日期 2005-04-27(捷克) / 2005-05-29(加拿大)
◎IMDb评分 6.9/10 from 48 users
◎IMDb链接 https://www.imdb.com/title/tt0458053/
◎豆瓣评分 /10 from 0 users
◎豆瓣链接 https://movie.douban.com/subject/4237784/

◎标  签 纪录片 | 法国 | 维和人员 | 紀錄片 | 戰爭 | 战争 | 求字幕 | 屠杀

◎简  介

  记录了从2002年~2004年期间,联合国维和部门在应对刚果共和国的内战危机的整个过程,开始部分以美国总统布什在联合国的一段演讲开始(是9/11之后,美国寻求联合国支持的演讲),“Will the UN address the purpose of its founding, or will it be irrelevant”(译:联合国是否会实现自己成立的初衷,还是置身事外呢?),暗示了联合国的维和任务责任重大。
  
  刚果内战5年,各个武装派系为争夺黄金和钻石等矿藏而争斗,屠杀村庄里的妇女/儿童也司空见惯。为了使刚果不成为第二个卢旺达,联合国维和机构的工作人员艰难得工作着,为了说服各个成员国捐钱,出兵,UN工作人员不仅需要承担极大的心理压力,同时也得冒着生命危险去刚果的难民营获取第一手资料。而联合国的5大成员国行动缓慢,法国作为前宗主,有这语言以及丰富的管理经验和足够的部队以实现维和任务,但法国只愿意出兵3个月,维护自己利益相关的部分,三个月后撤军,联合国在此面临资金和人员空缺的尴尬局面,唯独乌拉圭派遣了一支小部队,但实力太弱小了,保护UN在刚果的总部都岌岌可危。
  
  纪录片给观众展示了联合国维和人员艰辛的工作,在2年时间内,刚果局势初见稳定,但仍然需要各成员国的积极参与。
  
  就如俚语说的,铁链的强度,是看它最弱的那一环。联合国维和的成果,也需要联合国各成员国共同努力。

Video
ID : 1
Format : AVC
Format/Info : Advanced Video Codec
Format profile : [email protected]
Format settings : CABAC / 5 Ref Frames
Format settings, CABAC : Yes
Format settings, Reference frames : 5 frames
Codec ID : V_MPEG4/ISO/AVC
Duration : 1 h 23 min
Bit rate : 4 000 kb/s
Width : 1 920 pixels
Height : 1 080 pixels
Display aspect ratio : 16:9
Frame rate mode : Constant
Frame rate : 29.970 (29970/1000/189150) FPS
Color space : YUV
Chroma subsampling : 4:2:0
Bit depth : 8 bits
Scan type : Progressive
Bits/(Pixel*Frame) : 0.064
Stream size : 2.30 GiB (97%)
Writing library : x264 core 146 r2538 121396c
Encoding settings : cabac=1 / ref=6 / deblock=1:0:0 / analyse=0x3:0x111 / me=hex / subme=7 / psy=1 / psy_rd=1.00:0.00 / mixed_ref=1 / me_range=16 / chroma_me=1 / trellis=1 / 8x8dct=1 / cqm=0 / deadzone=21,11 / fast_pskip=1 / chroma_qp_offset=-2 / threads=4 / lookahead_threads=1 / sliced_threads=0 / nr=0 / decimate=1 / interlaced=0 / bluray_compat=0 / constrained_intra=0 / bframes=16 / b_pyramid=1 / b_adapt=1 / b_bias=0 / direct=1 / weightb=1 / open_gop=0 / weightp=2 / keyint=60 / keyint_min=20 / scenecut=40 / intra_refresh=0 / rc_lookahead=40 / rc=cbr / mbtree=1 / bitrate=4000 / ratetol=1.0 / qcomp=0.60 / qpmin=10 / qpmax=50 / qpstep=4 / vbv_maxrate=4000 / vbv_bufsize=8000 / nal_hrd=none / filler=0 / ip_ratio=1.41 / aq=1:1.00
Language : English
Default : No
Forced : No

Audio
ID : 2
Format : AAC LC
Format/Info : Advanced Audio Codec Low Complexity
Codec ID : A_AAC-2
Duration : 1 h 23 min
Bit rate : 128 kb/s
Channel(s) : 2 channels
Channel layout : L R
Sampling rate : 44.1 kHz
Frame rate : 43.066 FPS (1024 SPF)
Compression mode : Lossy
Stream size : 76.1 MiB (3%)
Language : English
Default : No
Forced : No




提示:如迅雷下载提示"任务出错"、"因版权无法下载",请尝试【迅雷5】
上传的附件:
最新回复 (0)
返回
本站所有资源均收集自互联网,没有提供影片资源存储, 也未参与录制、上传,若本站收录的资源无意侵犯了您的权益, 请联系邮箱:gogoimgs#gmail.com(#[email protected])