[2019] [其他] [剧情] [WEB-1080P] 这不是葬礼这是复活/逆葬重生 This.is.Not.A.Burial.Its.A.Resurrection.2019.1080p.AMZN.WEBRip.DD

uump4 4天前 157

帖子完整标题:这不是葬礼这是复活/逆葬重生 This.is.Not.A.Burial.Its.A.Resurrection.2019.1080p.AMZN.WEBRip.DDP2.0.x264-TEPES 7.57GB



◎译  名 这不是葬礼,这是复活/逆葬重生
◎片  名 This is Not a Burial, It's a Resurrection
◎年  代 2019
◎产  地 莱索托
◎类  别 剧情
◎语  言 塞索托语
◎上映日期 2019-08-29(威尼斯电影节)
◎IMDb评分  7.3/10 from 345 users
◎IMDb链接  https://www.imdb.com/title/tt10849514/
◎豆瓣评分 /10 from 0 users
◎豆瓣链接 https://movie.douban.com/subject/34680094/
◎片  长 120分钟
◎导  演 利莫昂·杰里米·摩塞 Lemohang Jeremiah Mosese
◎编  剧 利莫昂·杰里米·摩塞 Lemohang Jeremiah Mosese
◎主  演 玛莉兹华娜莫隆高 Mary Twala Mhlongo

◎标  签 莱索托 | 剧情 | 利莫昂·杰里米·摩塞 | 2010s | 南非电影 | 南非 | 2019 | PA-SundanceB2剧情片评审团特别奖

◎简  介

  When her village is threatened with forced resettlement due to reservoir construction, an 80-year-old widow finds a new will to live and ignites the spirit of resilience within her community.

◎获奖情况

  第44届香港国际电影节 ?(2020)
  新秀电影竞赛火鸟电影大奖(世界) 利莫昂·杰里米·摩塞
  新秀电影竞赛最佳女演员(世界) 玛莉兹华娜莫隆高
  国际影评人联盟奖
  
  第22届台北电影节 ?(2020)
  国际新导演竞赛 利莫昂·杰里米·摩塞

Video
ID                                       : 1
Format                                   : AVC
Format/Info                              : Advanced Video Codec
Format profile                           : [email protected]
Format settings                          : CABAC / 4 Ref Frames
Format settings, CABAC                   : Yes
Format settings, Reference frames        : 4 frames
Codec ID                                 : V_MPEG4/ISO/AVC
Duration                                 : 1 h 56 min
Bit rate mode                            : Constant
Bit rate                                 : 9 054 kb/s
Nominal bit rate                         : 10 000 kb/s
Width                                    : 1 792 pixels
Height                                   : 1 080 pixels
Display aspect ratio                     : 5:3
Frame rate mode                          : Constant
Frame rate                               : 25.000 FPS
Color space                              : YUV
Chroma subsampling                       : 4:2:0
Bit depth                                : 8 bits
Scan type                                : Progressive
Bits/(Pixel*Frame)                       : 0.187
Stream size                              : 7.38 GiB (98%)
Default                                  : Yes
Forced                                   : No
Color range                              : Limited
Color primaries                          : BT.709
Transfer characteristics                 : BT.709
Matrix coefficients                      : BT.709

Audio
ID                                       : 2
Format                                   : E-AC-3
Format/Info                              : Enhanced AC-3
Commercial name                          : Dolby Digital Plus
Codec ID                                 : A_EAC3
Duration                                 : 1 h 56 min
Bit rate mode                            : Constant
Bit rate                                 : 224 kb/s
Channel(s)                               : 2 channels
Channel layout                           : L R
Sampling rate                            : 48.0 kHz
Frame rate                               : 31.250 FPS (1536 SPF)
Compression mode                         : Lossy
Stream size                              : 187 MiB (2%)
Language                                 : English
Service kind                             : Complete Main
Default                                  : Yes
Forced                                   : No

Text
ID                                       : 3
Format                                   : UTF-8
Codec ID                                 : S_TEXT/UTF8
Codec ID/Info                            : UTF-8 Plain Text
Duration                                 : 1 h 49 min
Bit rate                                 : 25 b/s
Count of elements                        : 483
Stream size                              : 20.3 KiB (0%)
Language                                 : English
Default                                  : No
Forced                                   : No





提示:如迅雷下载提示"任务出错"、"因版权无法下载",请尝试【迅雷5】
上传的附件:
最新回复 (0)
返回
本站所有资源均收集自互联网,没有提供影片资源存储, 也未参与录制、上传,若本站收录的资源无意侵犯了您的权益, 请联系邮箱:gogoimgs#gmail.com(#[email protected])