[2020] [欧美] [喜剧] [BD-4K] 魔法教母/仙女教母 Godmothered.2020.HDR.2160p.WEB.h265-KOGi 13.26GB

uump4 6天前 167

帖子完整标题:魔法教母/仙女教母 Godmothered.2020.HDR.2160p.WEB.h265-KOGi 13.26GB



◎译  名 魔法教母/仙女教母
◎片  名 Godmothered
◎年  代 2020
◎产  地 美国
◎类  别 喜剧 / 奇幻
◎语  言 英语
◎上映日期 2020-12-04(美国)
◎IMDb评分  6.1/10 from 7684 users
◎IMDb链接  https://www.imdb.com/title/tt11681250/
◎豆瓣评分 6.6/10 from 1670 users
◎豆瓣链接 https://movie.douban.com/subject/35048298/
◎片  长 110分钟
◎导  演 莎伦·马奎尔 Sharon Maguire
◎编  剧 卡里·格兰伦德 Kari Granlund / 梅丽莎·斯塔克 Melissa Stack
◎主  演 琼·斯奎布 June Squibb
       吉莉恩·贝尔 Jillian Bell
       Sonia Manzano
       卡尔利斯·布克 Carlease Burke
       简·库丁 Jane Curtin
       艾丽卡·帕克斯 Erica Parks
       伊莎贝尔·麦克纳马拉 Isabelle McNamara
       欧嘉·梅雷迪斯 Olga Merediz
       斯蒂夫妮·韦尔 Stephnie Weir
       蒂姆·斯蒂罗兹 Tim Estiloz
       克里斯·埃弗里特 Chris Everett
       桑地亚哥·卡布瑞拉 Santiago Cabrera
       亚提米丝·帕博达尼 Artemis Pebdani
       乌特卡什·安邦德卡尔 Utkarsh Ambudkar
       艾拉·菲舍尔 Isla Fisher
       玛丽·伊丽莎白·埃利斯 Mary Elizabeth Ellis
       内尔松·阿森西奥 Nelson Ascencio
       大卫·布肯德尔 David Bookbinder
       珍妮尔·费格利 Janelle Feigley

◎标  签 喜剧 | 奇幻 | 童话 | 迪士尼 | 美国 | 2020 | 圣诞 | 家庭

◎简  介

  一位年轻且缺乏经验的仙女教母埃莉诺(Jillian Bell饰)听说仙女教母这个职业面临消失的危险,她想用行动来证明人们仍然需要仙女教母,便找来了一封来自一个不开心的十岁小女孩的信,想要帮助她。但当她找到这位“小女孩”麦肯齐(Isla Fisher饰),才发现她现在已经是一位40岁的单身母亲了,生活的遭遇让她不再相信“幸福的生活”这回事。埃莉诺决定无论麦肯齐喜欢不喜欢,也要帮她找到幸福。

Video
ID                                       : 1
Format                                   : HEVC
Format/Info                              : High Efficiency Video Coding
Format profile                           : Main [email protected]@High
HDR format                               : SMPTE ST 2086, HDR10 compatible
Codec ID                                 : V_MPEGH/ISO/HEVC
Duration                                 : 1 h 49 min
Bit rate                                 : 16.5 Mb/s
Width                                    : 3 840 pixels
Height                                   : 2 160 pixels
Display aspect ratio                     : 16:9
Frame rate mode                          : Constant
Frame rate                               : 23.976 (24000/1001/189150) FPS
Color space                              : YUV
Chroma subsampling                       : 4:2:0
Bit depth                                : 10 bits
Bits/(Pixel*Frame)                       : 0.083
Stream size                              : 12.7 GiB (96%)
Language                                 : English
Default                                  : Yes
Forced                                   : No
Color range                              : Limited
Color primaries                          : BT.2020
Transfer characteristics                 : PQ
Matrix coefficients                      : BT.2020 non-constant
Mastering display color primaries        : BT.2020
Mastering display luminance              : min: 0.0000 cd/m2, max: 1000 cd/m2

Audio
ID                                       : 2
Format                                   : E-AC-3 JOC
Format/Info                              : Enhanced AC-3 with Joint Object Coding
Commercial name                          : Dolby Digital Plus with Dolby Atmos
Codec ID                                 : A_EAC3
Duration                                 : 1 h 49 min
Bit rate mode                            : Constant
Bit rate                                 : 768 kb/s
Channel(s)                               : 6 channels
Channel layout                           : L R C LFE Ls Rs
Sampling rate                            : 48.0 kHz
Frame rate                               : 31.250 FPS (1536 SPF)
Compression mode                         : Lossy
Stream size                              : 603 MiB (4%)
Language                                 : English
Service kind                             : Complete Main
Default                                  : Yes
Forced                                   : No
Complexity index                         : 16
Number of dynamic objects                : 15
Bed channel count                        : 1 channel
Bed channel configuration                : LFE

Text #1
ID                                       : 3
Format                                   : UTF-8
Codec ID                                 : S_TEXT/UTF8
Codec ID/Info                            : UTF-8 Plain Text
Duration                                 : 1 h 41 min
Bit rate                                 : 83 b/s
Count of elements                        : 1795
Stream size                              : 62.4 KiB (0%)
Title                                    : English (SDH)
Language                                 : English
Default                                  : No
Forced                                   : No

Text #2
ID                                       : 4
Format                                   : UTF-8
Codec ID                                 : S_TEXT/UTF8
Codec ID/Info                            : UTF-8 Plain Text
Duration                                 : 1 h 48 min
Bit rate                                 : 61 b/s
Count of elements                        : 1259
Stream size                              : 48.9 KiB (0%)
Title                                    : Dansk
Language                                 : Danish
Default                                  : No
Forced                                   : No

Text #3
ID                                       : 5
Format                                   : UTF-8
Codec ID                                 : S_TEXT/UTF8
Codec ID/Info                            : UTF-8 Plain Text
Duration                                 : 1 h 48 min
Bit rate                                 : 64 b/s
Count of elements                        : 1455
Stream size                              : 51.5 KiB (0%)
Title                                    : Deutsch
Language                                 : German
Default                                  : No
Forced                                   : No

Text #4
ID                                       : 6
Format                                   : UTF-8
Codec ID                                 : S_TEXT/UTF8
Codec ID/Info                            : UTF-8 Plain Text
Duration                                 : 1 h 48 min
Bit rate                                 : 64 b/s
Count of elements                        : 1571
Stream size                              : 51.2 KiB (0%)
Title                                    : Espa?ol (Latinoamericano)
Language                                 : Spanish
Default                                  : No
Forced                                   : No

Text #5
ID                                       : 7
Format                                   : UTF-8
Codec ID                                 : S_TEXT/UTF8
Codec ID/Info                            : UTF-8 Plain Text
Duration                                 : 1 h 48 min
Bit rate                                 : 66 b/s
Count of elements                        : 1552
Stream size                              : 52.9 KiB (0%)
Title                                    : Espa?ol
Language                                 : Spanish
Default                                  : No
Forced                                   : No

Text #6
ID                                       : 8
Format                                   : UTF-8
Codec ID                                 : S_TEXT/UTF8
Codec ID/Info                            : UTF-8 Plain Text
Duration                                 : 1 h 48 min
Bit rate                                 : 60 b/s
Count of elements                        : 1565
Stream size                              : 48.4 KiB (0%)
Title                                    : Suomi
Language                                 : Finnish
Default                                  : No
Forced                                   : No

Text #7
ID                                       : 9
Format                                   : UTF-8
Codec ID                                 : S_TEXT/UTF8
Codec ID/Info                            : UTF-8 Plain Text
Duration                                 : 1 h 48 min
Bit rate                                 : 58 b/s
Count of elements                        : 1443
Stream size                              : 46.5 KiB (0%)
Title                                    : Fran?ais
Language                                 : French
Default                                  : No
Forced                                   : No

Text #8
ID                                       : 10
Format                                   : UTF-8
Codec ID                                 : S_TEXT/UTF8
Codec ID/Info                            : UTF-8 Plain Text
Duration                                 : 1 h 48 min
Bit rate                                 : 61 b/s
Count of elements                        : 1549
Stream size                              : 48.9 KiB (0%)
Title                                    : Italiano
Language                                 : Italian
Default                                  : No
Forced                                   : No

Text #9
ID                                       : 11
Format                                   : UTF-8
Codec ID                                 : S_TEXT/UTF8
Codec ID/Info                            : UTF-8 Plain Text
Duration                                 : 1 h 48 min
Bit rate                                 : 61 b/s
Count of elements                        : 1264
Stream size                              : 49.2 KiB (0%)
Title                                    : Nederlands
Language                                 : Dutch
Default                                  : No
Forced                                   : No

Text #10
ID                                       : 12
Format                                   : UTF-8
Codec ID                                 : S_TEXT/UTF8
Codec ID/Info                            : UTF-8 Plain Text
Duration                                 : 1 h 48 min
Bit rate                                 : 61 b/s
Count of elements                        : 1568
Stream size                              : 49.3 KiB (0%)
Title                                    : Norsk
Language                                 : Norwegian
Default                                  : No
Forced                                   : No

Text #11
ID                                       : 13
Format                                   : UTF-8
Codec ID                                 : S_TEXT/UTF8
Codec ID/Info                            : UTF-8 Plain Text
Duration                                 : 1 h 48 min
Bit rate                                 : 66 b/s
Count of elements                        : 1560
Stream size                              : 52.7 KiB (0%)
Title                                    : Polski
Language                                 : Polish
Default                                  : No
Forced                                   : No

Text #12
ID                                       : 14
Format                                   : UTF-8
Codec ID                                 : S_TEXT/UTF8
Codec ID/Info                            : UTF-8 Plain Text
Duration                                 : 1 h 48 min
Bit rate                                 : 64 b/s
Count of elements                        : 1569
Stream size                              : 51.4 KiB (0%)
Title                                    : Português
Language                                 : Portuguese
Default                                  : No
Forced                                   : No

Text #13
ID                                       : 15
Format                                   : UTF-8
Codec ID                                 : S_TEXT/UTF8
Codec ID/Info                            : UTF-8 Plain Text
Duration                                 : 1 h 48 min
Bit rate                                 : 65 b/s
Count of elements                        : 1568
Stream size                              : 52.0 KiB (0%)
Title                                    : Português (Brasil)
Language                                 : Portuguese
Default                                  : No
Forced                                   : No

Text #14
ID                                       : 16
Format                                   : UTF-8
Codec ID                                 : S_TEXT/UTF8
Codec ID/Info                            : UTF-8 Plain Text
Duration                                 : 1 h 48 min
Bit rate                                 : 66 b/s
Count of elements                        : 1563
Stream size                              : 52.8 KiB (0%)
Title                                    : Svenska
Language                                 : Swedish
Default                                  : No
Forced                                   : No





提示:如迅雷下载提示"任务出错"、"因版权无法下载",请尝试【迅雷5】
上传的附件:
最新回复 (0)
返回
本站所有资源均收集自互联网,没有提供影片资源存储, 也未参与录制、上传,若本站收录的资源无意侵犯了您的权益, 请联系邮箱:gogoimgs#gmail.com(#[email protected])