[2020] [欧美] [科幻] [BD-4K] 皇家次子女秘密组织 Secret.Society.of.Second-Born.Royals.2020.HDR.2160p.WEB.h265-KOGi 11.6

uump4 6天前 229

帖子完整标题:皇家次子女秘密组织 Secret.Society.of.Second-Born.Royals.2020.HDR.2160p.WEB.h265-KOGi 11.62GB



◎译  名 皇家次子女秘密组织
◎片  名 Secret Society of Second Born Royals
◎年  代 2020
◎产  地 美国
◎类  别 科幻
◎语  言 英语
◎上映日期 2020-09-25(美国)
◎IMDb评分  4.8/10 from 3080 users
◎IMDb链接  https://www.imdb.com/title/tt10324122/
◎豆瓣评分 3.9/10 from 375 users
◎豆瓣链接 https://movie.douban.com/subject/33440336/
◎片  长 97分钟
◎导  演 安娜·马斯特罗 Anna Mastro
◎编  剧 亚历克斯·利特瓦克 Alex Litvak
◎主  演 格雷格·布瑞克 Greg Bryk
       艾洛蒂·袁 Elodie Yung
       斯盖拉·阿斯丁 Skylar Astin
       佩顿·伊丽莎白·李 Peyton Elizabeth Lee
       奈尔斯·菲奇 Niles Fitch
       阿什利·廖 Ashley Liao
       伊莎贝拉·布莱克·托马斯 Isabella Blake-Thomas
       诺亚·罗麦克斯 Noah Lomax
       贾斯达达 Jas Dhanda

◎标  签 迪士尼 | 美国 | 科幻 | 2020 | 动作 | 冒险 | 电影 | 魔幻

◎简  介

  一个现代王国Illyria的公主Sam,性格叛逆,是王位的第二继承人。正当Sam对王位的漠不关心值达到人生新高时,她惊讶地发现自己有超能力,而且属于一个长期以来偷偷摸摸保护全国和平的秘密组织。影片聚焦Sam的历险:她加入了这个属于最高机密的训练项目,目的是训练皇室的次子女们来肩负拯救世界的任务。

Video
ID                                       : 1
Format                                   : HEVC
Format/Info                              : High Efficiency Video Coding
Format profile                           : Main [email protected]@High
HDR format                               : SMPTE ST 2086, HDR10 compatible
Codec ID                                 : V_MPEGH/ISO/HEVC
Duration                                 : 1 h 37 min
Bit rate                                 : 16.4 Mb/s
Width                                    : 3 840 pixels
Height                                   : 2 160 pixels
Display aspect ratio                     : 16:9
Frame rate mode                          : Constant
Frame rate                               : 23.976 (24000/1001/189150) FPS
Color space                              : YUV
Chroma subsampling                       : 4:2:0
Bit depth                                : 10 bits
Bits/(Pixel*Frame)                       : 0.082
Stream size                              : 11.1 GiB (95%)
Language                                 : English
Default                                  : Yes
Forced                                   : No
Color range                              : Limited
Color primaries                          : BT.2020
Transfer characteristics                 : PQ
Matrix coefficients                      : BT.2020 non-constant
Mastering display color primaries        : Display P3
Mastering display luminance              : min: 0.0001 cd/m2, max: 1000 cd/m2

Audio
ID                                       : 2
Format                                   : E-AC-3 JOC
Format/Info                              : Enhanced AC-3 with Joint Object Coding
Commercial name                          : Dolby Digital Plus with Dolby Atmos
Codec ID                                 : A_EAC3
Duration                                 : 1 h 37 min
Bit rate mode                            : Constant
Bit rate                                 : 768 kb/s
Channel(s)                               : 6 channels
Channel layout                           : L R C LFE Ls Rs
Sampling rate                            : 48.0 kHz
Frame rate                               : 31.250 FPS (1536 SPF)
Compression mode                         : Lossy
Stream size                              : 533 MiB (4%)
Language                                 : English
Service kind                             : Complete Main
Default                                  : Yes
Forced                                   : No
Complexity index                         : 16
Number of dynamic objects                : 15
Bed channel count                        : 1 channel
Bed channel configuration                : LFE

Text #1
ID                                       : 3
Format                                   : UTF-8
Codec ID                                 : S_TEXT/UTF8
Codec ID/Info                            : UTF-8 Plain Text
Duration                                 : 1 h 36 min
Bit rate                                 : 75 b/s
Count of elements                        : 1571
Stream size                              : 53.3 KiB (0%)
Title                                    : English (SDH)
Language                                 : English
Default                                  : No
Forced                                   : No

Text #2
ID                                       : 4
Format                                   : UTF-8
Codec ID                                 : S_TEXT/UTF8
Codec ID/Info                            : UTF-8 Plain Text
Duration                                 : 1 h 36 min
Bit rate                                 : 62 b/s
Count of elements                        : 1348
Stream size                              : 44.7 KiB (0%)
Title                                    : Dansk
Language                                 : Danish
Default                                  : No
Forced                                   : No

Text #3
ID                                       : 5
Format                                   : UTF-8
Codec ID                                 : S_TEXT/UTF8
Codec ID/Info                            : UTF-8 Plain Text
Duration                                 : 1 h 36 min
Bit rate                                 : 59 b/s
Count of elements                        : 1341
Stream size                              : 41.9 KiB (0%)
Title                                    : Deutsch
Language                                 : German
Default                                  : No
Forced                                   : No

Text #4
ID                                       : 6
Format                                   : UTF-8
Codec ID                                 : S_TEXT/UTF8
Codec ID/Info                            : UTF-8 Plain Text
Duration                                 : 1 h 36 min
Bit rate                                 : 59 b/s
Count of elements                        : 1348
Stream size                              : 42.3 KiB (0%)
Title                                    : Espa?ol (Latinoamericano)
Language                                 : Spanish
Default                                  : No
Forced                                   : No

Text #5
ID                                       : 7
Format                                   : UTF-8
Codec ID                                 : S_TEXT/UTF8
Codec ID/Info                            : UTF-8 Plain Text
Duration                                 : 1 h 36 min
Bit rate                                 : 59 b/s
Count of elements                        : 1329
Stream size                              : 42.0 KiB (0%)
Title                                    : Espa?ol
Language                                 : Spanish
Default                                  : No
Forced                                   : No

Text #6
ID                                       : 8
Format                                   : UTF-8
Codec ID                                 : S_TEXT/UTF8
Codec ID/Info                            : UTF-8 Plain Text
Duration                                 : 1 h 36 min
Bit rate                                 : 57 b/s
Count of elements                        : 1331
Stream size                              : 40.6 KiB (0%)
Title                                    : Suomi
Language                                 : Finnish
Default                                  : No
Forced                                   : No

Text #7
ID                                       : 9
Format                                   : UTF-8
Codec ID                                 : S_TEXT/UTF8
Codec ID/Info                            : UTF-8 Plain Text
Duration                                 : 1 h 36 min
Bit rate                                 : 63 b/s
Count of elements                        : 1345
Stream size                              : 45.0 KiB (0%)
Title                                    : Fran?ais
Language                                 : French
Default                                  : No
Forced                                   : No

Text #8
ID                                       : 10
Format                                   : UTF-8
Codec ID                                 : S_TEXT/UTF8
Codec ID/Info                            : UTF-8 Plain Text
Duration                                 : 1 h 36 min
Bit rate                                 : 63 b/s
Count of elements                        : 1348
Stream size                              : 45.2 KiB (0%)
Title                                    : Italiano
Language                                 : Italian
Default                                  : No
Forced                                   : No

Text #9
ID                                       : 11
Format                                   : UTF-8
Codec ID                                 : S_TEXT/UTF8
Codec ID/Info                            : UTF-8 Plain Text
Duration                                 : 1 h 36 min
Bit rate                                 : 53 b/s
Count of elements                        : 1279
Stream size                              : 37.8 KiB (0%)
Title                                    : Nederlands
Language                                 : Dutch
Default                                  : No
Forced                                   : No

Text #10
ID                                       : 12
Format                                   : UTF-8
Codec ID                                 : S_TEXT/UTF8
Codec ID/Info                            : UTF-8 Plain Text
Duration                                 : 1 h 36 min
Bit rate                                 : 54 b/s
Count of elements                        : 1336
Stream size                              : 38.8 KiB (0%)
Title                                    : Norsk
Language                                 : Norwegian
Default                                  : No
Forced                                   : No

Text #11
ID                                       : 13
Format                                   : UTF-8
Codec ID                                 : S_TEXT/UTF8
Codec ID/Info                            : UTF-8 Plain Text
Duration                                 : 1 h 36 min
Bit rate                                 : 60 b/s
Count of elements                        : 1344
Stream size                              : 43.2 KiB (0%)
Title                                    : Polski
Language                                 : Polish
Default                                  : No
Forced                                   : No

Text #12
ID                                       : 14
Format                                   : UTF-8
Codec ID                                 : S_TEXT/UTF8
Codec ID/Info                            : UTF-8 Plain Text
Duration                                 : 1 h 36 min
Bit rate                                 : 59 b/s
Count of elements                        : 1247
Stream size                              : 42.1 KiB (0%)
Title                                    : Português (Brasil)
Language                                 : Portuguese
Default                                  : No
Forced                                   : No

Text #13
ID                                       : 15
Format                                   : UTF-8
Codec ID                                 : S_TEXT/UTF8
Codec ID/Info                            : UTF-8 Plain Text
Duration                                 : 1 h 36 min
Bit rate                                 : 66 b/s
Count of elements                        : 1338
Stream size                              : 46.8 KiB (0%)
Title                                    : Português
Language                                 : Portuguese
Default                                  : No
Forced                                   : No

Text #14
ID                                       : 16
Format                                   : UTF-8
Codec ID                                 : S_TEXT/UTF8
Codec ID/Info                            : UTF-8 Plain Text
Duration                                 : 1 h 36 min
Bit rate                                 : 61 b/s
Count of elements                        : 1347
Stream size                              : 43.8 KiB (0%)
Title                                    : Svenska
Language                                 : Swedish
Default                                  : No
Forced                                   : No





提示:如迅雷下载提示"任务出错"、"因版权无法下载",请尝试【迅雷5】
上传的附件:
最新回复 (0)
返回
本站所有资源均收集自互联网,没有提供影片资源存储, 也未参与录制、上传,若本站收录的资源无意侵犯了您的权益, 请联系邮箱:gogoimgs#gmail.com(#[email protected])