[2013] [其他] [其他] [BD-1080P] 豌豆船上的罗拉 Lola.Auf.Der.Erbse.2014.GERMAN.1080p.BluRay.x264.DD5.1-FIZ 7.42GB

uump4 6天前 98

帖子完整标题:豌豆船上的罗拉 Lola.Auf.Der.Erbse.2014.GERMAN.1080p.BluRay.x264.DD5.1-FIZ 7.42GB



◎译  名 豌豆船上的罗拉/Lola On The Pea/我的意外朋友
◎片  名 Lola auf der Erbse
◎年  代 2013
◎产  地 德国
◎类  别 家庭
◎语  言 德语
◎上映日期 2014-09-04
◎IMDb评分  5.7/10 from 59 users
◎IMDb链接  https://www.imdb.com/title/tt2813412/
◎豆瓣评分 /10 from 0 users
◎豆瓣链接 https://movie.douban.com/subject/24522078/
◎片  长 120分钟
◎主  演 克里斯蒂安娜·保罗 Christiane Paul
       卡特琳娜·塔巴赫 Katharina Thalbach
       小安托万·莫诺特 Antoine Monot Jr.
       Olaf Kr?tke

◎标  签 德国 | 电影 | 家庭 | 剧情 | 托马斯·海涅曼 | 2017 | 审片 | 冒险

◎简  介

  洛拉和她的妈妈洛雷塔一起住在船屋上。一年前,她的父亲消失后她就开始变得内向,在学校她也没有什么朋友,她唯一的真正的朋友是一位有点疯狂的老船长Solmsen。有一天,Lola在河边闲逛时,她的宁静孤独的世界被一名叫Rebin的男孩打破。Rebin和他的父母是非法生活在德国的库尔德人,这件事除了Rebin的老师外没有人知道。Rebin的父亲一再警告儿子要和别人保持距离,但他还是和Lola慢慢的成为了好朋友。Lola的妈妈交了新的男朋友,但Lola并没有办法让任何人代替爸爸,因此对他并不友好。但是当Rebin的妈妈生病的时候,Lola求助了妈妈的新男友,并获得了帮助。但是几天后,Rebin和他的家人却消失了,这时候Lola会怎么做呢?

Video
ID                                       : 1
Format                                   : AVC
Format/Info                              : Advanced Video Codec
Format profile                           : [email protected]
Format settings                          : CABAC / 4 Ref Frames
Format settings, CABAC                   : Yes
Format settings, Reference frames        : 4 frames
Codec ID                                 : V_MPEG4/ISO/AVC
Duration                                 : 1 h 33 min
Bit rate                                 : 10.7 Mb/s
Width                                    : 1 920 pixels
Height                                   : 1 016 pixels
Display aspect ratio                     : 1.890
Frame rate mode                          : Constant
Frame rate                               : 24.000 FPS
Color space                              : YUV
Chroma subsampling                       : 4:2:0
Bit depth                                : 8 bits
Scan type                                : Progressive
Bits/(Pixel*Frame)                       : 0.230
Stream size                              : 7.00 GiB (94%)
Writing library                          : x264 core 161 r3027 4121277
Encoding settings                        : cabac=1 / ref=4 / deblock=1:-3:-3 / analyse=0x3:0x133 / me=umh / subme=10 / psy=1 / psy_rd=1.15:0.00 / mixed_ref=1 / me_range=32 / chroma_me=1 / trellis=2 / 8x8dct=1 / cqm=0 / deadzone=6,6 / fast_pskip=0 / chroma_qp_offset=-2 / threads=18 / lookahead_threads=4 / sliced_threads=0 / nr=0 / decimate=0 / interlaced=0 / bluray_compat=0 / constrained_intra=0 / bframes=16 / b_pyramid=2 / b_adapt=2 / b_bias=0 / direct=3 / weightb=1 / open_gop=0 / weightp=2 / keyint=250 / keyint_min=24 / scenecut=40 / intra_refresh=0 / rc_lookahead=250 / rc=crf / mbtree=0 / crf=18.5 / qcomp=0.65 / qpmin=0 / qpmax=69 / qpstep=4 / vbv_maxrate=62500 / vbv_bufsize=78125 / crf_max=0.0 / nal_hrd=none / filler=0 / ip_ratio=1.10 / pb_ratio=1.10 / aq=2:0.80
Language                                 : German
Default                                  : Yes
Forced                                   : No

Audio
ID                                       : 2
Format                                   : AC-3
Format/Info                              : Audio Coding 3
Commercial name                          : Dolby Digital
Codec ID                                 : A_AC3
Duration                                 : 1 h 33 min
Bit rate mode                            : Constant
Bit rate                                 : 640 kb/s
Channel(s)                               : 6 channels
Channel layout                           : L R C LFE Ls Rs
Sampling rate                            : 48.0 kHz
Frame rate                               : 31.250 FPS (1536 SPF)
Compression mode                         : Lossy
Stream size                              : 427 MiB (6%)
Title                                    : Dolby Digital Pro
Language                                 : German
Service kind                             : Complete Main
Default                                  : Yes
Forced                                   : No

Text #1
ID                                       : 3
Format                                   : UTF-8
Codec ID                                 : S_TEXT/UTF8
Codec ID/Info                            : UTF-8 Plain Text
Duration                                 : 1 h 32 min
Bit rate                                 : 44 b/s
Count of elements                        : 961
Stream size                              : 30.5 KiB (0%)
Language                                 : English
Default                                  : Yes
Forced                                   : Yes

Text #2
ID                                       : 4
Format                                   : PGS
Muxing mode                              : zlib
Codec ID                                 : S_HDMV/PGS
Codec ID/Info                            : Picture based subtitle format used on BDs/HD-DVDs
Duration                                 : 1 h 32 min
Bit rate                                 : 37.1 kb/s
Count of elements                        : 2330
Stream size                              : 24.7 MiB (0%)
Language                                 : German
Default                                  : No
Forced                                   : No

Menu
00:00:00.000                             : en:Chapter 01
00:08:43.833                             : en:Chapter 02
00:16:33.000                             : en:Chapter 03
00:22:59.000                             : en:Chapter 04
00:33:01.000                             : en:Chapter 05
00:55:22.000                             : en:Chapter 06
01:02:28.000                             : en:Chapter 07
01:15:01.000                             : en:Chapter 08
01:29:28.000                             : en:Chapter 09
01:33:00.000                             : en:Chapter 10





提示:如迅雷下载提示"任务出错"、"因版权无法下载",请尝试【迅雷5】
上传的附件:
最新回复 (0)
返回
本站所有资源均收集自互联网,没有提供影片资源存储, 也未参与录制、上传,若本站收录的资源无意侵犯了您的权益, 请联系邮箱:gogoimgs#gmail.com(#[email protected])