[2016] [其他] [喜剧] [BD-1080P] 我的新野蛮女友 My.New.Sassy.Girl.2016.KOREAN.1080p.BluRay.x264.DTS-CHD 9.01GB

uump4 6天前 202

帖子完整标题:我的新野蛮女友 My.New.Sassy.Girl.2016.KOREAN.1080p.BluRay.x264.DTS-CHD 9.01GB



◎译  名 我的新野蛮女友/My New Sassy Girl/???? ??? ??/新野蛮女友
◎片  名 ???? ?? 2
◎年  代 2016
◎产  地 韩国,中国大陆
◎类  别 喜剧 / 爱情
◎语  言 韩语,汉语普通话
◎上映日期 2016-04-22(中国大陆)
◎IMDb评分  4.6/10 from 285 users
◎IMDb链接  https://www.imdb.com/title/tt4080594/
◎豆瓣评分 3.8/10 from 14297 users
◎豆瓣链接 https://movie.douban.com/subject/26012321/
◎片  长 107分钟
◎导  演 赵根植 Geun-shik Jo
◎主  演 宋茜 Victoria Song
       车太贤 Tae-hyun Cha
       藤井美菜 Mina Fujii
       崔镇浩 Jin-ho Choi
       裴晟祐 Sung-Woo Bae
       申东勋 Dong-hoon Shin
       张恒准 Hang-jun Zhang
       李坤珏 Kunjue Li
       金根英 Geun-Young Kim
       姜德重 Deok-joong Kang
       宋宝恩 Song Bo-eun
       柳淳哲 Sun-cheol Yu
       柳恩美 Yoo Eun-mi
       裴铉庆 Hyun-kyung Bae

◎标  签 爱情 | 喜剧 | 韩国 | 搞笑 | 2016 | 浪漫 | 中国 | #我的新野蛮女友#

◎简  介

  影片讲述了男主人公牵牛(车太贤 饰)与新“野蛮”女友星星(宋茜 饰)从相恋到结婚的浪漫经历。星星是牵牛的小学初恋,由于韩语不流利常常被周围同学欺负。牵牛最初仍无法忘记分手离别的前任“她”,直到有一天,牵牛再次遇见初恋星星后,便不顾身边人的反对和她走进婚姻殿堂,没想到摆在他面前的却是超出想象的烦恼。

◎获奖情况

  第8届金扫帚奖 ?(2017)
  最令人失望中小成本电影

Video
ID                                       : 1
Format                                   : AVC
Format/Info                              : Advanced Video Codec
Format profile                           : [email protected]
Format settings                          : CABAC / 3 Ref Frames
Format settings, CABAC                   : Yes
Format settings, Reference frames        : 3 frames
Codec ID                                 : V_MPEG4/ISO/AVC
Duration                                 : 1 h 35 min
Bit rate                                 : 12.0 Mb/s
Width                                    : 1 920 pixels
Height                                   : 1 080 pixels
Display aspect ratio                     : 16:9
Frame rate mode                          : Constant
Frame rate                               : 25.000 FPS
Color space                              : YUV
Chroma subsampling                       : 4:2:0
Bit depth                                : 8 bits
Scan type                                : Progressive
Bits/(Pixel*Frame)                       : 0.232
Stream size                              : 8.00 GiB (89%)
Writing library                          : x264 core 148 r2638 7599210
Encoding settings                        : cabac=1 / ref=4 / deblock=1:-3:-3 / analyse=0x3:0x133 / me=umh / subme=10 / psy=1 / psy_rd=1.00:0.00 / mixed_ref=1 / me_range=24 / chroma_me=1 / trellis=2 / 8x8dct=1 / cqm=0 / deadzone=21,11 / fast_pskip=1 / chroma_qp_offset=-4 / threads=6 / lookahead_threads=1 / sliced_threads=0 / nr=0 / decimate=0 / interlaced=0 / bluray_compat=0 / constrained_intra=0 / bframes=10 / b_pyramid=1 / b_adapt=2 / b_bias=0 / direct=2 / weightb=1 / open_gop=0 / weightp=2 / keyint=250 / keyint_min=25 / scenecut=50 / intra_refresh=0 / rc_lookahead=50 / rc=2pass / mbtree=1 / bitrate=12001 / ratetol=1.0 / qcomp=0.80 / qpmin=0 / qpmax=69 / qpstep=4 / cplxblur=20.0 / qblur=0.5 / vbv_maxrate=35000 / vbv_bufsize=35000 / nal_hrd=none / filler=0 / ip_ratio=1.40 / aq=1:1.00
Language                                 : English
Default                                  : Yes
Forced                                   : No

Audio
ID                                       : 2
Format                                   : DTS
Format/Info                              : Digital Theater Systems
Codec ID                                 : A_DTS
Duration                                 : 1 h 35 min
Bit rate mode                            : Constant
Bit rate                                 : 1 509 kb/s
Channel(s)                               : 6 channels
Channel layout                           : C L R Ls Rs LFE
Sampling rate                            : 48.0 kHz
Frame rate                               : 93.750 FPS (512 SPF)
Bit depth                                : 16 bits
Compression mode                         : Lossy
Stream size                              : 1.01 GiB (11%)
Language                                 : Korean
Default                                  : No
Forced                                   : No

Text #1
ID                                       : 3
Format                                   : UTF-8
Codec ID                                 : S_TEXT/UTF8
Codec ID/Info                            : UTF-8 Plain Text
Duration                                 : 1 h 30 min
Bit rate                                 : 35 b/s
Count of elements                        : 860
Stream size                              : 23.9 KiB (0%)
Language                                 : English
Default                                  : Yes
Forced                                   : No

Text #2
ID                                       : 4
Format                                   : PGS
Muxing mode                              : zlib
Codec ID                                 : S_HDMV/PGS
Codec ID/Info                            : Picture based subtitle format used on BDs/HD-DVDs
Duration                                 : 1 h 30 min
Bit rate                                 : 24.6 kb/s
Count of elements                        : 1851
Stream size                              : 16.0 MiB (0%)
Language                                 : Thai
Default                                  : No
Forced                                   : No

Text #3
ID                                       : 5
Format                                   : UTF-8
Codec ID                                 : S_TEXT/UTF8
Codec ID/Info                            : UTF-8 Plain Text
Duration                                 : 1 h 30 min
Bit rate                                 : 35 b/s
Count of elements                        : 976
Stream size                              : 23.9 KiB (0%)
Language                                 : Chinese
Default                                  : No
Forced                                   : No





提示:如迅雷下载提示"任务出错"、"因版权无法下载",请尝试【迅雷5】
上传的附件:
最新回复 (0)
返回
本站所有资源均收集自互联网,没有提供影片资源存储, 也未参与录制、上传,若本站收录的资源无意侵犯了您的权益, 请联系邮箱:gogoimgs#gmail.com(#[email protected])