[2017] [其他] [动作] [BD-1080P] 巴西反贪第一案 Operation.Carwash.A.Worldwide.Corruption.Scandal.Made.in.Brazil.2017.POR

uump4 6天前 124

帖子完整标题:巴西反贪第一案 Operation.Carwash.A.Worldwide.Corruption.Scandal.Made.in.Brazil.2017.PORTUGUESE.1080p.BluRay.x264-SPiRiT 7.68GB



◎译  名 巴西反贪第一案/Operation Carwash: A Worldwide Corruption Scandal Made in Brazil
◎片  名 Polícia Federal: A Lei é Para Todos
◎年  代 2017
◎产  地 巴西
◎类  别 动作 / 犯罪
◎语  言 葡萄牙语
◎上映日期 2017-09-07(巴西)
◎IMDb评分  6.7/10 from 3244 users
◎IMDb链接  https://www.imdb.com/title/tt6471684/
◎豆瓣评分 /10 from 0 users
◎豆瓣链接 https://movie.douban.com/subject/27141127/
◎片  长 115分钟
◎编  剧 古斯塔沃·利普兹坦 Gustavo Lipsztein
◎主  演 安东尼奥·卡洛尼 Antonio Calloni
       马塞卢·塞拉多 Marcelo Serrado
       阿雷·丰托拉 Ary Fontoura
       布鲁斯·岗拉斯迪 Bruce Gomlevsky
       夫拉维亚·亚历山德拉 Flávia Alessandra
       雷尼尔·卡德特 Rainer Cadete
       塔德乌·阿吉亚尔 Tadeu Aguiar
       罗尼·法基尼 Roney Facchini
       里昂纳多·佛朗哥 Leonardo Franco
       若昂·巴尔达塞里尼 Jo?o Baldasserini

◎标  签 巴西 | 2017 | 犯罪 | 人性 | BDISO

◎简  介

  本片改编自“洗车运动”真实事件,关于巴西史上最大贪腐案的成功调查,通过侦探调查员伊万的视角,讲述了他以及在巴西联邦警方的团队如何与巴西联邦检察官合作,揭露这场错综复杂的洗钱贪腐计划,以及在巴西国家石油公司高管,政府承包商,政党和各级政府官员包括国会两院和内阁部长,现任和前任巴西总统之间的行贿与受贿。
  
  全片惊心动魄地展现了调查人员们面临的冲突危险等细节过程,以及阻挠调查的各种障碍,还有联邦法官关键人物如何顶着巨大压力阻止官员毁灭案件证据而逍遥法外。
  
  伊万与他的团队通过一步一步的调查过程,将一开始只是对毒贩以及洗钱罪犯的调查上升到了一场打击国家腐败中间力量的运动,之间对准巴西前总统卢拉( Luiz Inácio Lula da Silva)
  
  这是一个关于男人和女人一起抗争腐败政体以及试图证明无人能够凌驾于法律之上的故事。

Video
ID                                       : 1
Format                                   : AVC
Format/Info                              : Advanced Video Codec
Format profile                           : [email protected]
Format settings                          : CABAC / 5 Ref Frames
Format settings, CABAC                   : Yes
Format settings, Reference frames        : 5 frames
Codec ID                                 : V_MPEG4/ISO/AVC
Duration                                 : 1 h 46 min
Bit rate                                 : 9 696 kb/s
Width                                    : 1 920 pixels
Height                                   : 806 pixels
Display aspect ratio                     : 2.40:1
Frame rate mode                          : Constant
Frame rate                               : 23.976 (24000/1001/189150) FPS
Color space                              : YUV
Chroma subsampling                       : 4:2:0
Bit depth                                : 8 bits
Scan type                                : Progressive
Bits/(Pixel*Frame)                       : 0.261
Stream size                              : 7.21 GiB (94%)
Writing library                          : x264 core 157 r2935 545de2f
Encoding settings                        : cabac=1 / ref=5 / deblock=1:-3:-3 / analyse=0x3:0x133 / me=umh / subme=10 / psy=1 / psy_rd=1.00:0.00 / mixed_ref=1 / me_range=32 / chroma_me=1 / trellis=2 / 8x8dct=1 / cqm=0 / deadzone=6,6 / fast_pskip=0 / chroma_qp_offset=-2 / threads=6 / lookahead_threads=1 / sliced_threads=0 / nr=0 / decimate=0 / interlaced=0 / bluray_compat=0 / constrained_intra=0 / bframes=8 / b_pyramid=2 / b_adapt=2 / b_bias=0 / direct=3 / weightb=1 / open_gop=0 / weightp=2 / keyint=240 / keyint_min=24 / scenecut=40 / intra_refresh=0 / rc_lookahead=60 / rc=crf / mbtree=0 / crf=16.0 / qcomp=0.60 / qpmin=0 / qpmax=69 / qpstep=4 / vbv_maxrate=62500 / vbv_bufsize=78125 / crf_max=0.0 / nal_hrd=none / filler=0 / ip_ratio=1.10 / pb_ratio=1.10 / aq=2:1.00
Default                                  : Yes
Forced                                   : No
Color range                              : Limited
Color primaries                          : BT.709
Transfer characteristics                 : BT.709
Matrix coefficients                      : BT.709

Audio
ID                                       : 2
Format                                   : AC-3
Format/Info                              : Audio Coding 3
Commercial name                          : Dolby Digital
Codec ID                                 : A_AC3
Duration                                 : 1 h 46 min
Bit rate mode                            : Constant
Bit rate                                 : 640 kb/s
Channel(s)                               : 6 channels
Channel layout                           : L R C LFE Ls Rs
Sampling rate                            : 48.0 kHz
Frame rate                               : 31.250 FPS (1536 SPF)
Compression mode                         : Lossy
Delay relative to video                  : -5 ms
Stream size                              : 487 MiB (6%)
Language                                 : Portuguese
Service kind                             : Complete Main
Default                                  : Yes
Forced                                   : No

Text #1
ID                                       : 3
Format                                   : UTF-8
Codec ID                                 : S_TEXT/UTF8
Codec ID/Info                            : UTF-8 Plain Text
Duration                                 : 1 h 45 min
Bit rate                                 : 68 b/s
Count of elements                        : 1231
Stream size                              : 52.9 KiB (0%)
Language                                 : English
Default                                  : Yes
Forced                                   : No

Text #2
ID                                       : 4
Format                                   : UTF-8
Codec ID                                 : S_TEXT/UTF8
Codec ID/Info                            : UTF-8 Plain Text
Duration                                 : 1 h 45 min
Bit rate                                 : 90 b/s
Count of elements                        : 1554
Stream size                              : 69.5 KiB (0%)
Language                                 : German
Default                                  : No
Forced                                   : No

Menu
00:00:00.000                             : :Chapter 1
00:05:22.531                             : :Chapter 2
00:13:39.861                             : :Chapter 3
00:20:14.755                             : :Chapter 4
00:32:19.813                             : :Chapter 5
00:44:27.832                             : :Chapter 6
00:54:11.540                             : :Chapter 7
01:01:04.452                             : :Chapter 8
01:07:42.392                             : :Chapter 9
01:17:00.074                             : :Chapter 10
01:27:26.742                             : :Chapter 11
01:38:43.876                             : :Chapter 12





提示:如迅雷下载提示"任务出错"、"因版权无法下载",请尝试【迅雷5】
上传的附件:
最新回复 (0)
返回
本站所有资源均收集自互联网,没有提供影片资源存储, 也未参与录制、上传,若本站收录的资源无意侵犯了您的权益, 请联系邮箱:gogoimgs#gmail.com(#[email protected])