[更早] [其他] [喜剧] [BD-1080P] 巴里·麦肯锡的历险 The.Adventures.of.Barry.McKenzie.1972.1080p.BluRay.x264.FLAC.2.0-HANDJ

uump4 2天前 39

帖子完整标题:巴里·麦肯锡的历险 The.Adventures.of.Barry.McKenzie.1972.1080p.BluRay.x264.FLAC.2.0-HANDJOB 8.59GB



◎译  名 巴里·麦肯锡的历险
◎片  名 the Adventures of Barry Mckenzie
◎年  代 1972
◎产  地 澳大利亚
◎类  别 喜剧
◎语  言 英语
◎上映日期 
◎IMDb评分  5.7/10 from 722 users
◎IMDb链接  https://www.imdb.com/title/tt0068173/
◎豆瓣评分 /10 from 0 users
◎豆瓣链接 https://movie.douban.com/subject/3567191/
◎片  长 114 分钟
◎导  演 布鲁斯·贝尔斯福德 Bruce Beresford
◎编  剧 布鲁斯·贝尔斯福德 Bruce Beresford / 巴瑞·哈姆弗莱斯 Barry Humphries
◎主  演 玛丽娅·奥布莱恩 Maria O'Brien
       克里斯托弗·马尔科姆 Christopher Malcolm
       William Rushton
       Mohammad Shamsi
       Bernard Spear
       Jack Watling
       斯派克·米利甘 Spike Milligan
       Gough Whitlam
       John Joyce
       Avice Landone
       巴瑞·哈姆弗莱斯 Barry Humphries
       丹尼斯·普莱斯 Dennis Price
       布鲁斯·贝尔斯福德 Bruce Beresford
       乔纳森·哈迪 Jonathan Hardy
       Dick Bentley
       彼得·库克 Peter Cook
       John Clarke
       Julie Covington
       Barry Crocker
       John D. Collins
       Judith Furse
       Clive James
       Joan Bakewell

◎标  签 D布鲁斯·贝尔斯福德 | 70年代 | 澳大利亞 | 澳大利亚 | 喜剧 | M澳大利亚

◎简  介

  Cripes!! The things these pom sheilahs will do in front of a camera !!!!

Video
ID                                       : 1
Format                                   : AVC
Format/Info                              : Advanced Video Codec
Format profile                           : [email protected]
Format settings                          : CABAC / 4 Ref Frames
Format settings, CABAC                   : Yes
Format settings, Reference frames        : 4 frames
Codec ID                                 : V_MPEG4/ISO/AVC
Duration                                 : 1 h 53 min
Bit rate                                 : 10.4 Mb/s
Width                                    : 1 918 pixels
Height                                   : 1 038 pixels
Display aspect ratio                     : 1.85:1
Frame rate mode                          : Constant
Frame rate                               : 23.976 (24000/1001/189150) FPS
Color space                              : YUV
Chroma subsampling                       : 4:2:0
Bit depth                                : 8 bits
Scan type                                : Progressive
Bits/(Pixel*Frame)                       : 0.219
Stream size                              : 8.26 GiB (96%)
Writing library                          : x264 core 157 r2935 545de2f
Encoding settings                        : cabac=1 / ref=4 / deblock=1:-3:-3 / analyse=0x3:0x133 / me=umh / subme=10 / psy=1 / psy_rd=1.00:0.00 / mixed_ref=1 / me_range=32 / chroma_me=1 / trellis=2 / 8x8dct=1 / cqm=0 / deadzone=21,11 / fast_pskip=0 / chroma_qp_offset=-2 / threads=32 / lookahead_threads=8 / sliced_threads=0 / nr=0 / decimate=0 / interlaced=0 / bluray_compat=0 / constrained_intra=0 / bframes=16 / b_pyramid=2 / b_adapt=2 / b_bias=0 / direct=3 / weightb=1 / open_gop=0 / weightp=2 / keyint=240 / keyint_min=24 / scenecut=40 / intra_refresh=0 / rc_lookahead=60 / rc=crf / mbtree=0 / crf=20.2 / qcomp=0.60 / qpmin=0 / qpmax=69 / qpstep=4 / vbv_maxrate=62500 / vbv_bufsize=78125 / crf_max=0.0 / nal_hrd=none / filler=0 / ip_ratio=1.40 / pb_ratio=1.30 / aq=2:1.00
Default                                  : Yes
Forced                                   : No
Color range                              : Limited
Color primaries                          : BT.709
Transfer characteristics                 : BT.709
Matrix coefficients                      : BT.709

Audio
ID                                       : 2
Format                                   : FLAC
Format/Info                              : Free Lossless Audio Codec
Codec ID                                 : A_FLAC
Duration                                 : 1 h 53 min
Bit rate mode                            : Variable
Bit rate                                 : 409 kb/s
Channel(s)                               : 2 channels
Sampling rate                            : 48.0 kHz
Frame rate                               : 11.719 FPS (4096 SPF)
Bit depth                                : 16 bits
Compression mode                         : Lossless
Stream size                              : 331 MiB (4%)
Writing library                          : libFLAC 1.2.1 (UTC 2007-09-17)
Language                                 : English
Default                                  : Yes
Forced                                   : No

Text
ID                                       : 3
Format                                   : UTF-8
Codec ID                                 : S_TEXT/UTF8
Codec ID/Info                            : UTF-8 Plain Text
Duration                                 : 1 h 52 min
Bit rate                                 : 85 b/s
Count of elements                        : 1598
Stream size                              : 70.8 KiB (0%)
Language                                 : English
Default                                  : No
Forced                                   : No

Menu
00:00:00.000                             : :Furthering the cultural and intellectual traditions of the McKenzie dynasty / Opening Credits
00:09:45.126                             : :Curley, the ol\' bastard / The Winston Churchill memorial suite
00:18:58.471                             : :\"Cool in your mouth and firm between your hips\" / Swatting up with some Indian hygiene magazines
00:24:53.617                             : :Kinky for beef! / The blood-stained surfboard
00:31:29.304                             : :\"We mustn\'t cross our bridges before they\'re hatched\"
00:39:37.041                             : :Mr. Gort puts it up to Bazza / \"Go and stick your head up a dead bear\'s bum!\"
00:48:35.287                             : :Bazza fails to get \'round to the fair dinkum article / \"One-Eyed Trouser Snake\"
00:55:56.186                             : :Bazza unbuttons the mutton / \"His Light Shines On Me\"
01:03:22.382                             : :\"Chunder in the Old Pacific Sea\" / \"My organization would be interested in plugging you?\"
01:11:24.739                             : :\"Cop that rotten pommie bastard!\"
01:19:31.141                             : :\"Hey, this bloke\'s a sheila!\" / Pointing percy at the pommie porcelain
01:27:29.077                             : :Bazza comes the raw prawn with Lesley / Amber transfusion before the show
01:36:41.254                             : :Bazza points percy at the public / One eyed trouser snakes to the rescue
01:49:43.368                             : :End credits / \"The Adventures of Barry McKenzie\"





提示:如迅雷下载提示"任务出错"、"因版权无法下载",请尝试【迅雷5】
上传的附件:
最新回复 (0)
返回
本站所有资源均收集自互联网,没有提供影片资源存储, 也未参与录制、上传,若本站收录的资源无意侵犯了您的权益, 请联系邮箱:gogoimgs#gmail.com(#[email protected])