[2020] [其他] [惊悚] [WEB-1080P] 地平线/空中谜航 Horizon.Line.2020.1080p.AMZN.WEBRip.DDP5.1.x264-NTG 6.27GB

uump4 7天前 274

帖子完整标题:地平线/空中谜航 Horizon.Line.2020.1080p.AMZN.WEBRip.DDP5.1.x264-NTG 6.27GB



◎译  名 地平线/空中谜航(台)
◎片  名 Horizon Line
◎年  代 2020
◎产  地 瑞典,美国
◎类  别 惊悚
◎语  言 英语
◎上映日期 2020-11-06(英国)
◎IMDb评分  5.2/10 from 354 users
◎IMDb链接  https://www.imdb.com/title/tt5498354/
◎豆瓣评分 /10 from 0 users
◎豆瓣链接 https://movie.douban.com/subject/33456921/
◎片  长 87分钟
◎导  演 米凯尔·马奇曼 Mikael Marcimain
◎编  剧 乔什·坎贝尔 Josh Campbell / 马修·斯托肯 Matthew Stuecken
◎主  演 亚历山大·德雷蒙 Alexander Dreymon
       艾莉森·威廉姆斯 Allison Williams
       凯斯·大卫 Keith David
       珀尔·麦基 Pearl Mackie
       贾马恩·亨特 Jumayn Hunter

◎标  签 惊悚 | 2020 | 灾难 | 瑞典 | 悬疑 | 地平线 | 欧美 | 瑞典电影

◎简  介

  故事讲述一对情侣坐小飞机去岛屿上参加婚礼,在离开小岛时飞行员不幸突发心脏病,俩人得想办法活下来。

Video
ID                                       : 1
Format                                   : AVC
Format/Info                              : Advanced Video Codec
Format profile                           : [email protected]
Format settings                          : CABAC / 4 Ref Frames
Format settings, CABAC                   : Yes
Format settings, Reference frames        : 4 frames
Codec ID                                 : V_MPEG4/ISO/AVC
Duration                                 : 1 h 31 min
Bit rate mode                            : Constant
Bit rate                                 : 9 157 kb/s
Nominal bit rate                         : 10 000 kb/s
Width                                    : 1 920 pixels
Height                                   : 800 pixels
Display aspect ratio                     : 2.40:1
Frame rate mode                          : Constant
Frame rate                               : 23.976 (24000/1001/189150) FPS
Color space                              : YUV
Chroma subsampling                       : 4:2:0
Bit depth                                : 8 bits
Scan type                                : Progressive
Bits/(Pixel*Frame)                       : 0.249
Stream size                              : 5.86 GiB (93%)
Default                                  : Yes
Forced                                   : No
Color range                              : Limited
Color primaries                          : BT.709
Transfer characteristics                 : BT.709
Matrix coefficients                      : BT.709

Audio
ID                                       : 2
Format                                   : E-AC-3
Format/Info                              : Enhanced AC-3
Commercial name                          : Dolby Digital Plus
Codec ID                                 : A_EAC3
Duration                                 : 1 h 31 min
Bit rate mode                            : Constant
Bit rate                                 : 640 kb/s
Channel(s)                               : 6 channels
Channel layout                           : L R C LFE Ls Rs
Sampling rate                            : 48.0 kHz
Frame rate                               : 31.250 FPS (1536 SPF)
Compression mode                         : Lossy
Stream size                              : 419 MiB (7%)
Language                                 : English
Service kind                             : Complete Main
Default                                  : Yes
Forced                                   : No

Text #1
ID                                       : 3
Format                                   : UTF-8
Codec ID                                 : S_TEXT/UTF8
Codec ID/Info                            : UTF-8 Plain Text
Duration                                 : 1 h 25 min
Bit rate                                 : 49 b/s
Count of elements                        : 1076
Stream size                              : 30.8 KiB (0%)
Title                                    : SDH
Language                                 : English
Default                                  : No
Forced                                   : No

Text #2
ID                                       : 4
Format                                   : UTF-8
Codec ID                                 : S_TEXT/UTF8
Codec ID/Info                            : UTF-8 Plain Text
Duration                                 : 1 h 30 min
Bit rate                                 : 33 b/s
Count of elements                        : 841
Stream size                              : 22.4 KiB (0%)
Language                                 : Spanish
Default                                  : No
Forced                                   : No





提示:如迅雷下载提示"任务出错"、"因版权无法下载",请尝试【迅雷5】
上传的附件:
最新回复 (0)
返回
本站所有资源均收集自互联网,没有提供影片资源存储, 也未参与录制、上传,若本站收录的资源无意侵犯了您的权益, 请联系邮箱:gogoimgs#gmail.com(#[email protected])