[2020] [欧美] [悬疑] [WEB-1080P] 死亡电梯 Deadlocked.2021.1080p.AMZN.WEBRip.DDP2.0.x264-CM 5.16GB

uump4 1月前 654

悠悠MP4_MP4电影下载_死亡电梯 Deadlocked.2021.1080p.AMZN.WEBRip.DDP2.0.x264-CM 5.16GB
悠悠MP4_MP4电影下载_死亡电梯 Deadlocked.2021.1080p.AMZN.WEBRip.DDP2.0.x264-CM 5.16GB

◎译  名 死亡电梯
◎片  名 Deadlocked
◎年  代 2020
◎产  地 美国
◎类  别 悬疑 / 恐怖
◎语  言 英语
◎上映日期 
◎IMDb评分  4.2/10 from 73 users
◎IMDb链接  https://www.imdb.com/title/tt5258550/
◎豆瓣评分 /10 from 0 users
◎豆瓣链接 https://movie.douban.com/subject/27173608/

◎标  签 怪物病毒丧尸 | 美国电影 | 美国 | 惊悚

◎简  介

  As a zombie virus breaks out, one ragtag group of trapped elevator passengers must pull together for a fighting chance of survival against an infected rider and the clever horde that awaits them outside.

  谷歌为您翻译:
  随着僵尸病毒的爆发,一群被困的困住电梯的乘客必须齐心协力,才能有机会与被感染的骑手和在外面等候他们的聪明的部落作战。

  腾讯为您翻译:
  当僵尸病毒爆发时,一群被困电梯乘客必须齐心协力,以对抗受感染的骑手和那些等待他们外的聪明部落的战斗机会。

  本站为您翻译:
  随着僵尸病毒的爆发,一群被困在电梯里的乘客必须齐心协力,与受感染的乘客和在外面等待他们的聪明部落搏斗,以求生存。



Video

ID                                       : 1

Format                                   : AVC

Format/Info                              : Advanced Video Codec

Format profile                           : [email protected]

Format settings                          : CABAC / 4 Ref Frames

Format settings, CABAC                   : Yes

Format settings, Reference frames        : 4 frames

Codec ID                                 : V_MPEG4/ISO/AVC

Duration                                 : 1 h 18 min

Bit rate mode                            : Constant

Bit rate                                 : 9 145 kb/s

Nominal bit rate                         : 10 000 kb/s

Width                                    : 1 920 pixels

Height                                   : 816 pixels

Display aspect ratio                     : 2.35:1

Frame rate mode                          : Constant

Frame rate                               : 23.976 (24000/1001/34539) FPS

Color space                              : YUV

Chroma subsampling                       : 4:2:0

Bit depth                                : 8 bits

Scan type                                : Progressive

Bits/(Pixel*Frame)                       : 0.243

Stream size                              : 5.03 GiB (98%)

Default                                  : Yes

Forced                                   : No

Color range                              : Limited

Color primaries                          : BT.709

Transfer characteristics                 : BT.709

Matrix coefficients                      : BT.709



Audio

ID                                       : 2

Format                                   : E-AC-3

Format/Info                              : Enhanced AC-3

Commercial name                          : Dolby Digital Plus

Codec ID                                 : A_EAC3

Duration                                 : 1 h 18 min

Bit rate mode                            : Constant

Bit rate                                 : 224 kb/s

Channel(s)                               : 2 channels

Channel layout                           : L R

Sampling rate                            : 48.0 kHz

Frame rate                               : 31.250 FPS (1536 SPF)

Compression mode                         : Lossy

Stream size                              : 126 MiB (2%)

Title                                    : English

Language                                 : English

Service kind                             : Complete Main

Default                                  : No

Forced                                   : No



Text #1

ID                                       : 3

Format                                   : UTF-8

Codec ID                                 : S_TEXT/UTF8

Codec ID/Info                            : UTF-8 Plain Text

Duration                                 : 1 h 17 min

Bit rate                                 : 42 b/s

Count of elements                        : 991

Stream size                              : 23.8 KiB (0%)

Title                                    : English [SDH]

Language                                 : English

Default                                  : No

Forced                                   : No



Text #2

ID                                       : 4

Format                                   : UTF-8

Codec ID                                 : S_TEXT/UTF8

Codec ID/Info                            : UTF-8 Plain Text

Duration                                 : 1 h 13 min

Bit rate                                 : 40 b/s

Count of elements                        : 889

Stream size                              : 21.7 KiB (0%)

Title                                    : English

Language                                 : English

Default                                  : No

Forced                                   : No


悠悠MP4_MP4电影下载_死亡电梯 Deadlocked.2021.1080p.AMZN.WEBRip.DDP2.0.x264-CM 5.16GB悠悠MP4_MP4电影下载_死亡电梯 Deadlocked.2021.1080p.AMZN.WEBRip.DDP2.0.x264-CM 5.16GB悠悠MP4_MP4电影下载_死亡电梯 Deadlocked.2021.1080p.AMZN.WEBRip.DDP2.0.x264-CM 5.16GB

                                                                                           

提示:如迅雷下载提示"任务出错"、"因版权无法下载",请尝试【迅雷5】
上传的附件:
最新回复 (1)
  • siglo1978 1月前
    2
    2021?我穿越了吗?
返回
本站所有资源均收集自互联网,没有提供影片资源存储, 也未参与录制、上传,若本站收录的资源无意侵犯了您的权益, 请联系邮箱:gogoimgs#gmail.com(#[email protected])