[2020] [欧美] [动作] [BD-720P] 夺金营救/倒数反击 Honest.Thief.2020.720p.BluRay.x264.DTS-MT 3.67GB

uump4 1月前 1145

悠悠MP4_MP4电影下载_夺金营救/倒数反击 Honest.Thief.2020.720p.BluRay.x264.DTS-MT 3.67GB
悠悠MP4_MP4电影下载_夺金营救/倒数反击 Honest.Thief.2020.720p.BluRay.x264.DTS-MT 3.67GB

◎译  名 夺金营救 / The Honest Thief / 倒数反击(台) / 末路狂盗(港) / 诚实的小偷
◎片  名 Honest Thief
◎年  代 2020
◎产  地 美国
◎类  别 动作 / 惊悚 / 犯罪
◎语  言 英语
◎上映日期 2020-09-03(丹麦) / 2020-10-16(美国)
◎IMDb评分  6.1/10 from 4401 users
◎IMDb链接  https://www.imdb.com/title/tt1838556
◎豆瓣评分 5.9/10 from 153 users
◎豆瓣链接 https://movie.douban.com/subject/30349249/
◎片  长 99分钟
◎导  演 马克·威廉姆斯 Mark Williams
◎编  剧 史蒂夫·奥尔里奇 Steve Allrich / 马克·威廉姆斯 Mark Williams
◎主  演 连姆·尼森 Liam Neeson
       凯特·沃什 Kate Walsh
       杰·科特尼 Jai Courtney
       杰弗里·多诺万 Jeffrey Donovan
       安东尼·拉莫斯 Anthony Ramos
       罗伯特·帕特里克 Robert Patrick
       塔兹 Tazzie
       何塞·冈斯·阿尔维斯 Jose Guns Alves
       珍妮尔·费格利 Janelle Feigley
       德文·迪普 Devon Diep
       杰米·加扎里安 Jamie Ghazarian
       帕蒂·奥尼尔 Patty O'Neil
       阿德里安·M·蒙波因特 Adrian M. Mompoint
       安东尼·拉莫斯 Anthony Ramos
       雅斯曼·塞斯·琼斯 Jasmine Cephas Jones
       玛塞拉·贾拉米洛 Marcela Jaramillo


◎标  签 动作 | 美国 | 2020 | 悬疑 | 犯罪 | 惊悚 | 剧情 | 人性

◎简  介  

  连姆·尼森、凯特·沃什将主演新片[诚实的小偷](The Honest Thief,暂译)。本片由马克·威廉姆斯执导,故事讲述职业银行劫匪汤姆·卡特(尼森饰)遇到了他一生的挚爱安妮(沃尔什饰)。他之前在安妮工作的前台藏了700万美元的赃物,现决定自首。当案件被交给一个奸诈的联邦调查局特工时,一切都变得更加危险和困难。


Video

ID                                       : 1

Format                                   : AVC

Format/Info                              : Advanced Video Codec

Format profile                           : [email protected]

Format settings                          : CABAC / 12 Ref Frames

Format settings, CABAC                   : Yes

Format settings, Reference frames        : 12 frames

Codec ID                                 : V_MPEG4/ISO/AVC

Duration                                 : 1 h 38 min

Bit rate                                 : 3 824 kb/s

Width                                    : 1 280 pixels

Height                                   : 536 pixels

Display aspect ratio                     : 2.40:1

Frame rate mode                          : Constant

Frame rate                               : 24.000 FPS

Color space                              : YUV

Chroma subsampling                       : 4:2:0

Bit depth                                : 8 bits

Scan type                                : Progressive

Bits/(Pixel*Frame)                       : 0.232

Stream size                              : 2.63 GiB (72%)

Writing library                          : x264 core 157 r2938 2b00a84 [email protected] Mod

Encoding settings                        : cabac=1 / ref=12 / deblock=1:-3:-3 / analyse=0x3:0x133 / me=umh / subme=10 / psy=1 / psy_rd=1.05:0.00 / mixed_ref=1 / me_range=32 / chroma_me=1 / trellis=2 / 8x8dct=1 / cqm=0 / deadzone=21,11 / fast_pskip=0 / chroma_qp_offset=-2 / threads=12 / lookahead_threads=2 / sliced_threads=0 / nr=0 / decimate=0 / interlaced=0 / bluray_compat=0 / constrained_intra=0 / bframes=8 / b_pyramid=2 / b_adapt=2 / b_bias=0 / direct=3 / weightb=1 / open_gop=0 / weightp=2 / keyint=250 / keyint_min=24 / scenecut=40 / intra_refresh=0 / rc_lookahead=250 / rc=crf / mbtree=0 / crf=16.8 / qcomp=0.60 / qpmin=0 / qpmax=69 / qpstep=4 / vbv_maxrate=62500 / vbv_bufsize=78125 / crf_max=0.0 / nal_hrd=none / filler=0 / ip_ratio=1.30 / pb_ratio=1.20 / aq=3:0.80

Language                                 : English

Default                                  : Yes

Forced                                   : No

Color range                              : Limited

Color primaries                          : BT.709

Matrix coefficients                      : BT.709



Audio

ID                                       : 2

Format                                   : DTS

Format/Info                              : Digital Theater Systems

Codec ID                                 : A_DTS

Duration                                 : 1 h 38 min

Bit rate mode                            : Constant

Bit rate                                 : 1 509 kb/s

Channel(s)                               : 6 channels

Channel layout                           : C L R Ls Rs LFE

Sampling rate                            : 48.0 kHz

Frame rate                               : 93.750 FPS (512 SPF)

Bit depth                                : 24 bits

Compression mode                         : Lossy

Stream size                              : 1.04 GiB (28%)

Language                                 : English

Default                                  : Yes

Forced                                   : No



Text

ID                                       : 3

Format                                   : UTF-8

Codec ID                                 : S_TEXT/UTF8

Codec ID/Info                            : UTF-8 Plain Text

Duration                                 : 1 h 28 min

Bit rate                                 : 54 b/s

Count of elements                        : 1111

Stream size                              : 35.6 KiB (0%)

Language                                 : English

Default                                  : Yes

Forced                                   : No



Menu

00:00:00.000                             : en:Chapter 01

00:07:44.667                             : en:Chapter 02

00:14:48.208                             : en:Chapter 03

00:19:37.750                             : en:Chapter 04

00:24:50.292                             : en:Chapter 05

00:34:49.500                             : en:Chapter 06

00:45:43.583                             : en:Chapter 07

00:56:30.833                             : en:Chapter 08

01:06:27.250                             : en:Chapter 09

01:14:13.667                             : en:Chapter 10

01:22:05.375                             : en:Chapter 11

01:30:00.167                             : en:Chapter 12


悠悠MP4_MP4电影下载_夺金营救/倒数反击 Honest.Thief.2020.720p.BluRay.x264.DTS-MT 3.67GB悠悠MP4_MP4电影下载_夺金营救/倒数反击 Honest.Thief.2020.720p.BluRay.x264.DTS-MT 3.67GB悠悠MP4_MP4电影下载_夺金营救/倒数反击 Honest.Thief.2020.720p.BluRay.x264.DTS-MT 3.67GB

                                                                                           

提示:如迅雷下载提示"任务出错"、"因版权无法下载",请尝试【迅雷5】
上传的附件:
最新回复 (0)
返回
本站所有资源均收集自互联网,没有提供影片资源存储, 也未参与录制、上传,若本站收录的资源无意侵犯了您的权益, 请联系邮箱:gogoimgs#gmail.com(#[email protected])