[2009] [其他] [剧情] [BD-1080P] 征服/墨索里尼的祕密恋人 Vincere.2009.ITALIAN.1080p.BluRay.x264.DD5.1-EA 13.72GB

uump4 4天前 297

悠悠MP4_MP4电影下载_征服/墨索里尼的祕密恋人 Vincere.2009.ITALIAN.1080p.BluRay.x264.DD5.1-EA 13.72GB
悠悠MP4_MP4电影下载_征服/墨索里尼的祕密恋人 Vincere.2009.ITALIAN.1080p.BluRay.x264.DD5.1-EA 13.72GB

◎译  名 征服 / 墨索里尼的祕密恋人 / 墨索里尼的秘密情人 / 独裁者的情人 / 胜利 / 荣誉
◎片  名 Vincere
◎年  代 2009
◎产  地 意大利 / 法国
◎类  别 剧情 / 历史
◎语  言 意大利语 / 德语
◎上映日期 2009-05-20
◎IMDb评分  6.9/10 from 5249 users
◎IMDb链接  https://www.imdb.com/title/tt1156173
◎豆瓣评分 7.3/10 from 2056 users
◎豆瓣链接 https://movie.douban.com/subject/3190766/
◎片  长 128分钟
◎导  演 马可·贝洛基奥 Marco Bellocchio
◎编  剧 马可·贝洛基奥 Marco Bellocchio / Daniela Ceselli
◎主  演 乔凡娜·梅索兹殴诺 Giovanna Mezzogiorno
       菲利波·蒂米 Filippo Timi
       福斯托·鲁索·阿莱西 Fausto Russo Alesi
       米雪拉·塞尚 Michela Cescon
       皮耶尔·乔治·贝洛奇奥 Pier Giorgio Bellocchio
       科拉多·因韦尔尼齐 Corrado Invernizzi
       布鲁诺·卡里诺 Bruno Cariello
       西蒙娜·诺比利 Simona Nobili
       阿尔贝托·克拉科 Alberto Cracco
       Mario Patanè
       伊莲娜·普丽丝缇 Elena Presti
       Carlo Crivelli
       杰基·库根 Jackie Coogan


◎标  签 意大利 | 传记 | 意大利电影 | 历史 | 2009 | MarcoBellocchio | 剧情 | Marco_Bellocchio

◎简  介  

  墨索里尼(费立波·提米 Filippo Timi 饰)于第一次世界大战期间参军入伍,踌躇满志的他将情人达尔塞(乔凡娜·梅索兹殴诺 Giovanna Mezzogiorno 饰)和儿子埃博诺(法布里兹奥·柯斯戴拉 Fabrizio Costella 饰)忘在了脑后,发迹后,墨索里尼娶了蕾切尔(米雪拉·塞尚 Michela Cescon 饰)为妻,生儿育女,而就在此时,达尔塞找到了墨索里尼,希望能够讨个说法,得到属于自己的名分。墨索里尼在政场中节节攀升,权利越来越大,这也导致达尔塞的存在成为了威胁到他仕途的绊脚石。墨索里尼派出了秘密警察监视控制达尔塞,并且最终将她送入了精神病院。可即便如此,执着的达尔塞依然没有放弃她的诉求。

◎获奖情况  

  第62届戛纳电影节(2009)
  主竞赛单元 金棕榈奖(提名) 马可·贝洛基奥

  第22届欧洲电影奖(2009)
  最佳男主角(提名) 菲利波·蒂米
  费比西-杰出成就奖(提名) Francesca Calvelli


Video

ID                                       : 1

Format                                   : AVC

Format/Info                              : Advanced Video Codec

Format profile                           : High@L4.1

Format settings                          : CABAC / 4 Ref Frames

Format settings, CABAC                   : Yes

Format settings, Reference frames        : 4 frames

Codec ID                                 : V_MPEG4/ISO/AVC

Duration                                 : 2 h 4 min

Bit rate                                 : 15.1 Mb/s

Width                                    : 1 920 pixels

Height                                   : 1 038 pixels

Display aspect ratio                     : 1.85:1

Frame rate mode                          : Constant

Frame rate                               : 23.976 (24000/1001/34539) FPS

Color space                              : YUV

Chroma subsampling                       : 4:2:0

Bit depth                                : 8 bits

Scan type                                : Progressive

Bits/(Pixel*Frame)                       : 0.316

Stream size                              : 13.2 GiB (96%)

Title                                    : -EA

Writing library                          : x264 core 148 r2665+53 6629127 t_mod_Custom [8-bit@all X86_64]

Encoding settings                        : cabac=1 / ref=4 / deblock=1:-3:-3 / analyse=0x3:0x113 / me=umh / subme=10 / psy=1 / fade_compensate=0.00 / psy_rd=1.06:0.00 / mixed_ref=1 / me_range=32 / chroma_me=1 / trellis=2 / 8x8dct=1 / cqm=0 / deadzone=21,11 / fast_pskip=0 / chroma_qp_offset=-2 / threads=24 / lookahead_threads=4 / sliced_threads=0 / nr=0 / decimate=0 / interlaced=0 / bluray_compat=0 / constrained_intra=0 / fgo=0 / bframes=8 / b_pyramid=2 / b_adapt=2 / b_bias=0 / direct=3 / weightb=1 / open_gop=0 / weightp=2 / keyint=240 / keyint_min=23 / scenecut=40 / intra_refresh=0 / rc_lookahead=60 / rc=crf / mbtree=0 / crf=20.3000 / qcomp=0.75 / qpmin=0:0:0 / qpmax=69:69:69 / qpstep=4 / vbv_maxrate=62500 / vbv_bufsize=78125 / crf_max=0.0 / nal_hrd=none / filler=0 / ip_ratio=1.30 / pb_ratio=1.20 / aq=3:0.75 / aq-sensitivity=10.00 / aq-factor=1.00:1.00:1.00 / aq2=1:0.60 / aq2-sensitivity=15.00 / aq2-factor=1.00:1.00:1.00 / aq3=1:[0.60:0.60]:[0.60:0.60]:[0.60:0.60]:[0.60:0.60] / aq3-sensitivity=10.00 / aq3-factor=[1.00:1.00]:[1.00:1.00]:[1.00:1.00] / aq3-boundary=192:64:24

Language                                 : Italian

Default                                  : Yes

Forced                                   : No

Color range                              : Limited

Color primaries                          : BT.709

Transfer characteristics                 : BT.709

Matrix coefficients                      : BT.709



Audio

ID                                       : 2

Format                                   : AC-3

Format/Info                              : Audio Coding 3

Commercial name                          : Dolby Digital

Codec ID                                 : A_AC3

Duration                                 : 2 h 4 min

Bit rate mode                            : Constant

Bit rate                                 : 640 kb/s

Channel(s)                               : 6 channels

Channel layout                           : L R C LFE Ls Rs

Sampling rate                            : 48.0 kHz

Frame rate                               : 31.250 FPS (1536 SPF)

Compression mode                         : Lossy

Stream size                              : 570 MiB (4%)

Language                                 : Italian

Service kind                             : Complete Main

Default                                  : Yes

Forced                                   : No



Text #1

ID                                       : 3

Format                                   : UTF-8

Codec ID                                 : S_TEXT/UTF8

Codec ID/Info                            : UTF-8 Plain Text

Duration                                 : 1 h 59 min

Bit rate                                 : 25 b/s

Count of elements                        : 785

Stream size                              : 22.4 KiB (0%)

Title                                    : srt

Language                                 : English

Default                                  : Yes

Forced                                   : Yes



Text #2

ID                                       : 4

Format                                   : PGS

Muxing mode                              : zlib

Codec ID                                 : S_HDMV/PGS

Codec ID/Info                            : Picture based subtitle format used on BDs/HD-DVDs

Duration                                 : 1 h 59 min

Bit rate                                 : 4 973 b/s

Count of elements                        : 1573

Stream size                              : 4.26 MiB (0%)

Title                                    : sup

Language                                 : English

Default                                  : No

Forced                                   : No



Menu

00:00:00.000                             : en:00:00:00.000

00:13:58.671                             : en:00:13:58.671

00:20:54.253                             : en:00:20:54.253

00:27:27.062                             : en:00:27:27.062

00:36:12.587                             : en:00:36:12.587

00:45:03.701                             : en:00:45:03.701

00:54:32.269                             : en:00:54:32.269

01:05:58.371                             : en:01:05:58.371

01:15:08.587                             : en:01:15:08.587

01:25:26.121                             : en:01:25:26.121

01:32:13.778                             : en:01:32:13.778

01:36:47.468                             : en:01:36:47.468

01:47:40.079                             : en:01:47:40.079

01:54:52.094                             : en:01:54:52.094


悠悠MP4_MP4电影下载_征服/墨索里尼的祕密恋人 Vincere.2009.ITALIAN.1080p.BluRay.x264.DD5.1-EA 13.72GB悠悠MP4_MP4电影下载_征服/墨索里尼的祕密恋人 Vincere.2009.ITALIAN.1080p.BluRay.x264.DD5.1-EA 13.72GB悠悠MP4_MP4电影下载_征服/墨索里尼的祕密恋人 Vincere.2009.ITALIAN.1080p.BluRay.x264.DD5.1-EA 13.72GB

                                                                                           

提示:如迅雷下载提示"任务出错"、"因版权无法下载",请尝试【迅雷5】
上传的附件:
最新回复 (0)
返回
本站所有资源均收集自互联网,没有提供影片资源存储, 也未参与录制、上传,若本站收录的资源无意侵犯了您的权益, 请联系邮箱:gogoimgs#gmail.com(#=@)