[更早] [欧美] [其他] [WEB-1080P] 夏日爵士 Jazz.On.A.Summers.Day.1959.1080p.AMZN.WEBRip.DDP2.0.x264-Cinefeel 5.67GB

uump4 4天前 85

悠悠MP4_MP4电影下载_夏日爵士 Jazz.On.A.Summers.Day.1959.1080p.AMZN.WEBRip.DDP2.0.x264-Cinefeel 5.67GB
悠悠MP4_MP4电影下载_夏日爵士 Jazz.On.A.Summers.Day.1959.1080p.AMZN.WEBRip.DDP2.0.x264-Cinefeel 5.67GB

◎译  名 夏日爵士
◎片  名 Jazz on a Summer's Day
◎年  代 1959
◎产  地 美国
◎类  别 纪录片 / 音乐
◎语  言 英语
◎上映日期 1960-03-28(美国)
◎IMDb评分  8/10 from 1086 users
◎IMDb链接  https://www.imdb.com/title/tt0052942/
◎豆瓣评分 8.9/10 from 138 users
◎豆瓣链接 https://movie.douban.com/subject/1855048/
◎片  长 85 分钟
◎导  演 阿拉姆·阿瓦基安 Aram Avakian / 伯特·斯特恩 Bert Stern
◎编  剧 阿诺德·珀尔 Arnold Perl
◎主  演 路易斯·阿姆斯特朗 Louis Armstrong
       Mahalia Jackson
       查克  贝里 Chuck Berry
       Jack Teagarden
       Sal Salvador
       Peanuts Hucko
       黛娜·华盛顿 Dinah Washington
       Big Maybelle
       Sonny Stitt
       Armando Peraza
       安妮塔·奥黛 Anita O'Day
       Urbie Green
       Danny Barcelona
       Chico Hamilton
       Gerry Mulligan
       Terry Gibbs
       Patricia Bosworth
       Art Farmer
       George Shearing
       Eric Dolphy
       Henry Grimes
       Bob Brookmeyer
       Jo Jones
       Jim Hall
       Buck Clayton
       Jimmy Giuffre
       Max Roach
       Willis Conover
       Thelonious Monk

◎标  签 纪录片 | 音乐 | 美国 | JAZZ | 爵士 | Live | 1960s | Documentary

◎简  介

  《夏日爵士》发生在1958年的纽波特爵士音乐节,由广告、时尚摄影师Bert Stern导演。
  电影中混合了波动的水面、城中演奏者与音乐节上的观众,此外还包括1958年美洲杯帆船赛的镜头。除了主持人Willis Conover偶尔的报幕外,这部电影几乎没有对话与讲解。


Video

ID                                       : 1

Format                                   : AVC

Format/Info                              : Advanced Video Codec

Format profile                           : High@L4

Format settings                          : CABAC / 4 Ref Frames

Format settings, CABAC                   : Yes

Format settings, Reference frames        : 4 frames

Codec ID                                 : V_MPEG4/ISO/AVC

Duration                                 : 1 h 22 min

Bit rate mode                            : Constant

Bit rate                                 : 10 000 kb/s

Width                                    : 1 440 pixels

Height                                   : 1 080 pixels

Display aspect ratio                     : 4:3

Frame rate mode                          : Constant

Frame rate                               : 24.000 FPS

Color space                              : YUV

Chroma subsampling                       : 4:2:0

Bit depth                                : 8 bits

Scan type                                : Progressive

Bits/(Pixel*Frame)                       : 0.268

Stream size                              : 5.54 GiB (98%)

Default                                  : Yes

Forced                                   : No

Color range                              : Limited

Color primaries                          : BT.709

Transfer characteristics                 : BT.709

Matrix coefficients                      : BT.709



Audio

ID                                       : 2

Format                                   : E-AC-3

Format/Info                              : Enhanced AC-3

Commercial name                          : Dolby Digital Plus

Codec ID                                 : A_EAC3

Duration                                 : 1 h 22 min

Bit rate mode                            : Constant

Bit rate                                 : 224 kb/s

Channel(s)                               : 2 channels

Channel layout                           : L R

Sampling rate                            : 48.0 kHz

Frame rate                               : 31.250 FPS (1536 SPF)

Compression mode                         : Lossy

Stream size                              : 133 MiB (2%)

Title                                    : English

Language                                 : English

Service kind                             : Complete Main

Default                                  : Yes

Forced                                   : No



Text

ID                                       : 3

Format                                   : UTF-8

Codec ID                                 : S_TEXT/UTF8

Codec ID/Info                            : UTF-8 Plain Text

Duration                                 : 1 h 21 min

Bit rate                                 : 34 b/s

Count of elements                        : 957

Stream size                              : 20.4 KiB (0%)

Title                                    : English [SDH]

Language                                 : English

Default                                  : No

Forced                                   : No

悠悠MP4_MP4电影下载_夏日爵士 Jazz.On.A.Summers.Day.1959.1080p.AMZN.WEBRip.DDP2.0.x264-Cinefeel 5.67GB 悠悠MP4_MP4电影下载_夏日爵士 Jazz.On.A.Summers.Day.1959.1080p.AMZN.WEBRip.DDP2.0.x264-Cinefeel 5.67GB 悠悠MP4_MP4电影下载_夏日爵士 Jazz.On.A.Summers.Day.1959.1080p.AMZN.WEBRip.DDP2.0.x264-Cinefeel 5.67GB

提示:如迅雷下载提示"任务出错"、"因版权无法下载",请尝试【迅雷5】
上传的附件:
最新回复 (0)
返回
本站所有资源均收集自互联网,没有提供影片资源存储, 也未参与录制、上传,若本站收录的资源无意侵犯了您的权益, 请联系邮箱:gogoimgs#gmail.com(#=@)