[更早] [其他] [动作] [BD-4K] 疯狂的麦克斯/冲锋追魂手 Mad.Max.1979.2160p.UHD.BluRay.x265.10bit.HDR.DTS-HD.MA.5.1-SWTYBLZ 32.45GB

uump4 4天前 130

悠悠MP4_MP4电影下载_疯狂的麦克斯/冲锋追魂手 Mad.Max.1979.2160p.UHD.BluRay.x265.10bit.HDR.DTS-HD.MA.5.1-SWTYBLZ 32.45GB
悠悠MP4_MP4电影下载_疯狂的麦克斯/冲锋追魂手 Mad.Max.1979.2160p.UHD.BluRay.x265.10bit.HDR.DTS-HD.MA.5.1-SWTYBLZ 32.45GB

◎译  名 疯狂的麦克斯 / 冲锋追魂手 / 冲锋飞车队 / 疯狂麦克斯 / 迷雾追魂手(台) / 霹雳神探怒扫飞车党(港)
◎片  名 Mad Max
◎年  代 1979
◎产  地 澳大利亚
◎类  别 动作 / 科幻 / 惊悚 / 冒险
◎语  言 英语
◎上映日期 1979-04-12(澳大利亚)
◎IMDb评分  6.9/10 from 189433 users
◎IMDb链接  https://www.imdb.com/title/tt0079501
◎豆瓣评分 6.3/10 from 15572 users
◎豆瓣链接 https://movie.douban.com/subject/1295670/
◎片  长 93分钟
◎导  演 乔治·米勒 George Miller
◎编  剧 乔治·米勒 George Miller / 拜伦·肯尼迪 Byron Kennedy / 詹姆斯·麦考斯兰 James McCausland
◎主  演 梅尔·吉布森 Mel Gibson
       休·基斯-拜恩 Hugh Keays-Byrne
       雷格·埃文斯 Reg Evans
       史提夫·比斯利 Steve Bisley
       贝特朗·卡达尔 Bertrand Cadart
       希拉·弗洛兰斯 Sheila Florance
       乔纳森·哈迪 Jonathan Hardy
       尼克·拉图里 Nick Lathouris
       史蒂夫·米利钱普 Steve Millichamp
       吉尔·塔克 Gil Tucker
       琼妮·萨缪尔 Joanne Samuel


◎标  签 动作 | 澳大利亚 | 公路 | 科幻 | 公路电影 | 梅尔·吉布森 | 1979 | 犯罪

◎简  介  

  在不远的未来,公路骑士们在道路上肆虐,所过之处留下疯狂破坏的痕迹。为了追逐盗取了警用车的“黑暗骑士”,警方付出了重大代价,幸有比骑士更加疯狂的麦克斯(梅尔·吉布森 Mel Gibson 饰)出场,迫使黑暗骑士车祸身亡。黑暗骑士的同伙们发誓报仇,他们降临小镇,要接回黑暗骑士的尸身,并且肆意凌虐弱者,麦克斯和搭档古斯(Steve Bisley 饰)抓获凶手后,却因为无人敢指认,只得容忍他们继续逍遥法外。古斯被公路骑士们抓到,身负重伤,而麦克斯的妻子杰西(琼妮·萨缪尔 Joanne Samuel 饰)也被他们恐吓骚扰,有“疯狂”之称的麦克斯不再隐忍,向骑士们展开回击……


Video
ID                                       : 1
Format                                   : HEVC
Format/Info                              : High Efficiency Video Coding
Format profile                           : Main 10@L5.1@High
HDR format                               : SMPTE ST 2086, HDR10 compatible
Codec ID                                 : V_MPEGH/ISO/HEVC
Duration                                 : 1 h 33 min
Bit rate                                 : 44.9 Mb/s
Width                                    : 3 840 pixels
Height                                   : 1 634 pixels
Display aspect ratio                     : 2.35:1
Frame rate mode                          : Constant
Frame rate                               : 23.976 (24000/1001/34539) FPS
Color space                              : YUV
Chroma subsampling                       : 4:2:0 (Type 2)
Bit depth                                : 10 bits
Bits/(Pixel*Frame)                       : 0.299
Stream size                              : 29.2 GiB (91%)
Title                                    : Mad.Max.1979.2160p.UHD.BluRay.x265.10bit.HDR.DTS-HD.MA.5.1-SWTYBLZ
Writing library                          : x265 3.0_Au+10-74a8672ea4f7:[Windows][GCC 8.2.1][64 bit] 10bit
Encoding settings                        : cpuid=1111039 / frame-threads=6 / numa-pools=40 / wpp / no-pmode / no-pme / no-psnr / no-ssim / log-level=2 / input-csp=1 / input-res=3840x1634 / interlace=0 / total-frames=0 / level-idc=51 / high-tier=1 / uhd-bd=0 / ref=3 / no-allow-non-conformance / repeat-headers / annexb / aud / hrd / info / hash=0 / no-temporal-layers / no-open-gop / min-keyint=1 / keyint=24 / gop-lookahead=0 / bframes=4 / b-adapt=2 / b-pyramid / bframe-bias=0 / rc-lookahead=25 / lookahead-slices=4 / scenecut=40 / radl=0 / no-splice / no-intra-refresh / ctu=64 / min-cu-size=8 / no-rect / no-amp / max-tu-size=32 / tu-inter-depth=1 / tu-intra-depth=1 / limit-tu=0 / rdoq-level=0 / dynamic-rd=0.00 / no-ssim-rd / signhide / no-tskip / nr-intra=0 / nr-inter=0 / no-constrained-intra / strong-intra-smoothing / max-merge=2 / limit-refs=3 / no-limit-modes / me=1 / subme=2 / merange=57 / temporal-mvp / weightp / no-weightb / no-analyze-src-pics / deblock=0:0 / no-sao / no-sao-non-deblock / rd=3 / no-early-skip / rskip / no-fast-intra / no-tskip-fast / no-cu-lossless / no-b-intra / no-splitrd-skip / rdpenalty=0 / psy-rd=2.00 / psy-rdoq=0.00 / no-rd-refine / no-lossless / cbqpoffs=0 / crqpoffs=0 / rc=crf / crf=18.0 / qcomp=0.60 / qpstep=4 / stats-write=0 / stats-read=0 / vbv-maxrate=160000 / vbv-bufsize=160000 / vbv-init=0.9 / crf-max=0.0 / crf-min=0.0 / ipratio=1.40 / pbratio=1.30 / aq-mode=1 / aq-strength=1.00 / cutree / zone-count=0 / no-strict-cbr / qg-size=32 / no-rc-grain / qpmax=69 / qpmin=0 / no-const-vbv / sar=1 / overscan=0 / videoformat=5 / range=0 / colorprim=9 / transfer=16 / colormatrix=9 / chromaloc=1 / chromaloc-top=2 / chromaloc-bottom=2 / display-window=0 / master-display=G(13250,34500)B(7500,3000)R(34000,16000)WP(15635,16450)L(10000000,01) / max-cll=0,0 / min-luma=0 / max-luma=1023 / log2-max-poc-lsb=8 / vui-timing-info / vui-hrd-info / slices=1 / opt-qp-pps / opt-ref-list-length-pps / no-multi-pass-opt-rps / scenecut-bias=0.05 / no-opt-cu-delta-qp / no-aq-motion / hdr / hdr-opt / no-dhdr10-opt / no-idr-recovery-sei / analysis-reuse-level=5 / scale-factor=0 / refine-intra=0 / refine-inter=0 / refine-mv=0 / refine-ctu-distortion=0 / no-limit-sao / ctu-info=0 / no-lowpass-dct / refine-analysis-type=0 / copy-pic=1 / max-ausize-factor=1.0 / no-dynamic-refine / no-single-sei / no-hevc-aq / no-svt / qp-adaptation-range=1.00
Default                                  : Yes
Forced                                   : No
Color range                              : Limited
Color primaries                          : BT.2020
Transfer characteristics                 : PQ
Matrix coefficients                      : BT.2020 non-constant
Mastering display color primaries        : Display P3
Mastering display luminance              : min: 0.0001 cd/m2, max: 1000 cd/m2

Audio #1
ID                                       : 2
ID in the original source medium         : 4352 (0x1100)
Format                                   : DTS XLL
Format/Info                              : Digital Theater Systems
Commercial name                          : DTS-HD Master Audio
Codec ID                                 : A_DTS
Duration                                 : 1 h 33 min
Bit rate mode                            : Variable
Bit rate                                 : 4 000 kb/s
Channel(s)                               : 6 channels
Channel layout                           : C L R Ls Rs LFE
Sampling rate                            : 48.0 kHz
Frame rate                               : 93.750 FPS (512 SPF)
Bit depth                                : 24 bits
Compression mode                         : Lossless
Stream size                              : 2.60 GiB (8%)
Title                                    : Mad.Max.1979.2160p.UHD.BluRay.x265.10bit.HDR.DTS-HD.MA.5.1-SWTYBLZ
Language                                 : English
Default                                  : Yes
Forced                                   : No
Original source medium                   : Blu-ray

Audio #2
ID                                       : 3
Format                                   : AC-3
Format/Info                              : Audio Coding 3
Commercial name                          : Dolby Digital
Codec ID                                 : A_AC3
Duration                                 : 1 h 33 min
Bit rate mode                            : Constant
Bit rate                                 : 640 kb/s
Channel(s)                               : 6 channels
Channel layout                           : L R C LFE Ls Rs
Sampling rate                            : 48.0 kHz
Frame rate                               : 31.250 FPS (1536 SPF)
Compression mode                         : Lossy
Stream size                              : 427 MiB (1%)
Title                                    : Mad.Max.1979.2160p.UHD.BluRay.x265.10bit.HDR.DTS-HD.MA.5.1-SWTYBLZ
Language                                 : English
Service kind                             : Complete Main
Default                                  : No
Forced                                   : No

Text #1
ID                                       : 4
Format                                   : UTF-8
Codec ID                                 : S_TEXT/UTF8
Codec ID/Info                            : UTF-8 Plain Text
Duration                                 : 1 h 29 min
Bit rate                                 : 36 b/s
Count of elements                        : 847
Stream size                              : 24.0 KiB (0%)
Title                                    : English-SRT
Language                                 : English
Default                                  : Yes
Forced                                   : No

Text #2
ID                                       : 5
ID in the original source medium         : 4768 (0x12A0)
Format                                   : PGS
Muxing mode                              : zlib
Codec ID                                 : S_HDMV/PGS
Codec ID/Info                            : Picture based subtitle format used on BDs/HD-DVDs
Duration                                 : 1 h 29 min
Bit rate                                 : 21.1 kb/s
Count of elements                        : 1710
Stream size                              : 13.5 MiB (0%)
Title                                    : English-PGS
Language                                 : English
Default                                  : No
Forced                                   : No
Original source medium                   : Blu-ray

Menu
00:00:00.000                             : en:Chapter 01
00:07:00.169                             : en:Chapter 02
00:15:39.229                             : en:Chapter 03
00:23:36.706                             : en:Chapter 04
00:31:48.907                             : en:Chapter 05
00:39:00.338                             : en:Chapter 06
00:47:02.236                             : en:Chapter 07
00:55:43.340                             : en:Chapter 08
01:02:12.729                             : en:Chapter 09
01:15:32.528                             : en:Chapter 10
01:30:48.443                             : en:Chapter 11


悠悠MP4_MP4电影下载_疯狂的麦克斯/冲锋追魂手 Mad.Max.1979.2160p.UHD.BluRay.x265.10bit.HDR.DTS-HD.MA.5.1-SWTYBLZ 32.45GB悠悠MP4_MP4电影下载_疯狂的麦克斯/冲锋追魂手 Mad.Max.1979.2160p.UHD.BluRay.x265.10bit.HDR.DTS-HD.MA.5.1-SWTYBLZ 32.45GB悠悠MP4_MP4电影下载_疯狂的麦克斯/冲锋追魂手 Mad.Max.1979.2160p.UHD.BluRay.x265.10bit.HDR.DTS-HD.MA.5.1-SWTYBLZ 32.45GB悠悠MP4_MP4电影下载_疯狂的麦克斯/冲锋追魂手 Mad.Max.1979.2160p.UHD.BluRay.x265.10bit.HDR.DTS-HD.MA.5.1-SWTYBLZ 32.45GB悠悠MP4_MP4电影下载_疯狂的麦克斯/冲锋追魂手 Mad.Max.1979.2160p.UHD.BluRay.x265.10bit.HDR.DTS-HD.MA.5.1-SWTYBLZ 32.45GB悠悠MP4_MP4电影下载_疯狂的麦克斯/冲锋追魂手 Mad.Max.1979.2160p.UHD.BluRay.x265.10bit.HDR.DTS-HD.MA.5.1-SWTYBLZ 32.45GB悠悠MP4_MP4电影下载_疯狂的麦克斯/冲锋追魂手 Mad.Max.1979.2160p.UHD.BluRay.x265.10bit.HDR.DTS-HD.MA.5.1-SWTYBLZ 32.45GB悠悠MP4_MP4电影下载_疯狂的麦克斯/冲锋追魂手 Mad.Max.1979.2160p.UHD.BluRay.x265.10bit.HDR.DTS-HD.MA.5.1-SWTYBLZ 32.45GB

                                                                                           

提示:如迅雷下载提示"任务出错"、"因版权无法下载",请尝试【迅雷5】
上传的附件:
最新回复 (0)
返回
本站所有资源均收集自互联网,没有提供影片资源存储, 也未参与录制、上传,若本站收录的资源无意侵犯了您的权益, 请联系邮箱:gogoimgs#gmail.com(#=@)