[2020] [欧美] [剧情] [BD-1080P] 特工老爸/第二次 The.2nd.2020.1080p.BluRay.x264-GETiT 4.85GB

uump4 4天前 141

悠悠MP4_MP4电影下载_特工老爸/第二次 The.2nd.2020.1080p.BluRay.x264-GETiT 4.85GB
悠悠MP4_MP4电影下载_特工老爸/第二次 The.2nd.2020.1080p.BluRay.x264-GETiT 4.85GB

◎译  名 特工老爸 / 第二次
◎片  名 The 2nd
◎年  代 2020
◎产  地 美国
◎语  言 英语
◎上映日期 2020-09-01(美国)
◎IMDb链接  https://www.imdb.com/title/tt11697484
◎豆瓣评分 0/10 from 0 users
◎豆瓣链接 https://movie.douban.com/subject/35151590/
◎导  演 布莱恩·斯基巴 Brian Skiba
◎主  演 卡斯帕·凡·迪恩 Casper Van Dien
       萨米拉·阿姆斯特朗 Samaire Armstrong
       瑞恩·菲利普 Ryan Phillippe


◎标  签 美国 | 电影 | 悬疑 | 动作 | RyanPhillippe | 2020

◎简  介  

  特勤局特工维克·戴维斯(瑞恩·菲利普饰)正从大学校园接他的儿子肖恩(杰克·格里夫饰),他敏锐的职业神经发现自己正身处一场恐怖行动中。最高法院法官的女儿正是目标,于是......


Video
ID                                       : 1
Format                                   : AVC
Format/Info                              : Advanced Video Codec
Format profile                           : High@L4.1
Format settings                          : CABAC / 5 Ref Frames
Format settings, CABAC                   : Yes
Format settings, Reference frames        : 5 frames
Codec ID                                 : V_MPEG4/ISO/AVC
Duration                                 : 1 h 33 min
Bit rate                                 : 4 847 kb/s
Width                                    : 1 920 pixels
Height                                   : 796 pixels
Display aspect ratio                     : 2.40:1
Frame rate mode                          : Constant
Frame rate                               : 23.976 (24000/1001/34539) FPS
Color space                              : YUV
Chroma subsampling                       : 4:2:0
Bit depth                                : 8 bits
Scan type                                : Progressive
Bits/(Pixel*Frame)                       : 0.132
Stream size                              : 3.17 GiB (65%)
Writing library                          : x264 core 161 r3018 db0d417
Encoding settings                        : cabac=1 / ref=5 / deblock=1:-3:-3 / analyse=0x3:0x133 / me=umh / subme=9 / psy=1 / psy_rd=1.00:0.00 / mixed_ref=1 / me_range=16 / chroma_me=1 / trellis=2 / 8x8dct=1 / cqm=0 / deadzone=21,11 / fast_pskip=1 / chroma_qp_offset=-2 / threads=24 / lookahead_threads=2 / sliced_threads=0 / nr=0 / decimate=1 / interlaced=0 / bluray_compat=0 / constrained_intra=0 / bframes=3 / b_pyramid=2 / b_adapt=2 / b_bias=0 / direct=3 / weightb=1 / open_gop=0 / weightp=2 / keyint=250 / keyint_min=23 / scenecut=40 / intra_refresh=0 / rc_lookahead=60 / rc=crf / mbtree=1 / crf=17.0 / qcomp=0.60 / qpmin=0 / qpmax=69 / qpstep=4 / ip_ratio=1.40 / aq=3:0.80
Language                                 : English
Default                                  : Yes
Forced                                   : No
Color range                              : Limited
Matrix coefficients                      : BT.709

Audio
ID                                       : 2
Format                                   : DTS XLL
Format/Info                              : Digital Theater Systems
Commercial name                          : DTS-HD Master Audio
Codec ID                                 : A_DTS
Duration                                 : 1 h 33 min
Bit rate mode                            : Variable
Bit rate                                 : 2 569 kb/s
Channel(s)                               : 6 channels
Channel layout                           : C L R Ls Rs LFE
Sampling rate                            : 48.0 kHz
Frame rate                               : 93.750 FPS (512 SPF)
Bit depth                                : 24 bits
Compression mode                         : Lossless
Stream size                              : 1.68 GiB (35%)
Title                                    : dtshd
Language                                 : English
Default                                  : Yes
Forced                                   : No

Text
ID                                       : 3
Format                                   : PGS
Muxing mode                              : zlib
Codec ID                                 : S_HDMV/PGS
Codec ID/Info                            : Picture based subtitle format used on BDs/HD-DVDs
Duration                                 : 1 h 32 min
Bit rate                                 : 10.2 kb/s
Count of elements                        : 2076
Stream size                              : 6.74 MiB (0%)
Title                                    : sub
Language                                 : German
Default                                  : No
Forced                                   : No

Menu
00:00:00.000                             : en:00:00:00.000
00:10:46.271                             : en:00:10:46.271
00:20:45.202                             : en:00:20:45.202
00:29:58.839                             : en:00:29:58.839
00:39:53.891                             : en:00:39:53.891
00:51:06.480                             : en:00:51:06.480
01:00:06.061                             : en:01:00:06.061
01:10:30.309                             : en:01:10:30.309
01:21:23.295                             : en:01:21:23.295

悠悠MP4_MP4电影下载_特工老爸/第二次 The.2nd.2020.1080p.BluRay.x264-GETiT 4.85GB

提示:如迅雷下载提示"任务出错"、"因版权无法下载",请尝试【迅雷5】
上传的附件:
最新回复 (0)
返回
本站所有资源均收集自互联网,没有提供影片资源存储, 也未参与录制、上传,若本站收录的资源无意侵犯了您的权益, 请联系邮箱:gogoimgs#gmail.com(#=@)