[2015] [欧美] [剧情] [WEB-1080P] 天颤地惧,两眼非兄 The.Sky.Trembles.and.the.Earth.Is.Afraid...2015.1080p.AMZN.WEBRip.DDP2.0.x264-Cinefeel 8.17GB

uump4 7天前 211

悠悠MP4_MP4电影下载_天颤地惧,两眼非兄 The.Sky.Trembles.and.the.Earth.Is.Afraid...2015.1080p.AMZN.WEBRip.DDP2.0.x264-Cinefeel 8.17GB
悠悠MP4_MP4电影下载_天颤地惧,两眼非兄 The.Sky.Trembles.and.the.Earth.Is.Afraid...2015.1080p.AMZN.WEBRip.DDP2.0.x264-Cinefeel 8.17GB

◎译  名 天颤地惧,两眼非兄
◎片  名 The Sky Trembles And The Earth Is Afraid And The Two Eyes Are Not Brothers
◎年  代 2015
◎产  地 英国
◎类  别 剧情
◎语  言 英语
◎上映日期 2015-08-12(洛迦诺电影节)
◎IMDb评分  6.2/10 from 217 users
◎IMDb链接  https://www.imdb.com/title/tt4881172
◎豆瓣评分 6.5/10 from 85 users
◎豆瓣链接 https://movie.douban.com/subject/26550321/
◎片  长 100分钟
◎导  演 本·里弗斯 Ben Rivers
◎主  演 奥利维尔·拉克谢 Oliver Laxe


◎标  签 英国 | BenRivers | Ben_Rivers | 2010s | 实验电影 | 2015 | 实验 | 英國

◎简  介  

  《在海上的两年》导演本·里弗斯新作,导演本·里弗斯在随行奥利维尔·拉克谢(本片男主角)的《含羞草》剧组时,借用《含羞草》剧组即兴拍摄的一部实验性电影,故事设定在摩洛哥的撒哈拉沙漠,用现实主义的方式拍了个特别离奇的寓言故事。获得第68届洛迦诺国际电影节的金豹奖提名。

◎获奖情况  

  第68届洛迦诺国际电影节(2015)
  金豹奖(提名) 本·里弗斯


Video

ID                                       : 1

Format                                   : AVC

Format/Info                              : Advanced Video Codec

Format profile                           : High@L4

Format settings                          : CABAC / 4 Ref Frames

Format settings, CABAC                   : Yes

Format settings, Reference frames        : 4 frames

Codec ID                                 : V_MPEG4/ISO/AVC

Duration                                 : 1 h 35 min

Bit rate mode                            : Variable

Bit rate                                 : 12.0 Mb/s

Maximum bit rate                         : 15.0 Mb/s

Width                                    : 1 920 pixels

Height                                   : 1 080 pixels

Display aspect ratio                     : 16:9

Frame rate mode                          : Constant

Frame rate                               : 25.000 FPS

Color space                              : YUV

Chroma subsampling                       : 4:2:0

Bit depth                                : 8 bits

Scan type                                : Progressive

Bits/(Pixel*Frame)                       : 0.232

Stream size                              : 8.01 GiB (98%)

Default                                  : Yes

Forced                                   : No

Color range                              : Limited

Color primaries                          : BT.709

Transfer characteristics                 : BT.709

Matrix coefficients                      : BT.709



Audio

ID                                       : 2

Format                                   : E-AC-3

Format/Info                              : Enhanced AC-3

Commercial name                          : Dolby Digital Plus

Codec ID                                 : A_EAC3

Duration                                 : 1 h 35 min

Bit rate mode                            : Constant

Bit rate                                 : 224 kb/s

Channel(s)                               : 2 channels

Channel layout                           : L R

Sampling rate                            : 48.0 kHz

Frame rate                               : 31.250 FPS (1536 SPF)

Compression mode                         : Lossy

Stream size                              : 153 MiB (2%)

Language                                 : English

Service kind                             : Complete Main

Default                                  : Yes

Forced                                   : No


悠悠MP4_MP4电影下载_天颤地惧,两眼非兄 The.Sky.Trembles.and.the.Earth.Is.Afraid...2015.1080p.AMZN.WEBRip.DDP2.0.x264-Cinefeel 8.17GB悠悠MP4_MP4电影下载_天颤地惧,两眼非兄 The.Sky.Trembles.and.the.Earth.Is.Afraid...2015.1080p.AMZN.WEBRip.DDP2.0.x264-Cinefeel 8.17GB悠悠MP4_MP4电影下载_天颤地惧,两眼非兄 The.Sky.Trembles.and.the.Earth.Is.Afraid...2015.1080p.AMZN.WEBRip.DDP2.0.x264-Cinefeel 8.17GB

                                                                                           

提示:如迅雷下载提示"任务出错"、"因版权无法下载",请尝试【迅雷5】
上传的附件:
最新回复 (0)
返回
本站所有资源均收集自互联网,没有提供影片资源存储, 也未参与录制、上传,若本站收录的资源无意侵犯了您的权益, 请联系邮箱:gogoimgs#gmail.com(#=@)