[2018] [欧美] [动作] [WEB-1080P] 非法之徒 Outlawed.2018.1080p.AMZN.WEBRip.DD5.1.x264-NOGRP 7.23GB

uump4 7天前 306

悠悠MP4_MP4电影下载_非法之徒 Outlawed.2018.1080p.AMZN.WEBRip.DD5.1.x264-NOGRP 7.23GB
悠悠MP4_MP4电影下载_非法之徒 Outlawed.2018.1080p.AMZN.WEBRip.DD5.1.x264-NOGRP 7.23GB

◎译  名 非法之徒
◎片  名 Outlawed
◎年  代 2018
◎产  地 英国
◎类  别 动作
◎语  言 英语
◎上映日期 2018-09-18(英国)
◎IMDb评分  4.9/10 from 1034 users
◎IMDb链接  https://www.imdb.com/title/tt2445568
◎豆瓣评分 0/10 from 0 users
◎豆瓣链接 https://movie.douban.com/subject/30334743/
◎片  长 102分钟

◎标  签 英国 | 动作 | 犯罪 | 2018 | 英国电影 | 电视 | 欧美 | 反恐

◎简  介  

  孤胆英雄抵抗腐败和谋杀的动作电影。大反派人数众多,火力猛,似乎胜券在握。突击队员杰克,必须突破重围,而通拯救他的女友……


Video

ID                                       : 1

Format                                   : AVC

Format/Info                              : Advanced Video Codec

Format profile                           : High@L4

Format settings                          : CABAC / 4 Ref Frames

Format settings, CABAC                   : Yes

Format settings, Reference frames        : 4 frames

Codec ID                                 : V_MPEG4/ISO/AVC

Duration                                 : 1 h 42 min

Bit rate mode                            : Constant

Bit rate                                 : 10 000 kb/s

Width                                    : 1 920 pixels

Height                                   : 816 pixels

Display aspect ratio                     : 2.35:1

Frame rate mode                          : Constant

Frame rate                               : 23.976 (24000/1001/34539) FPS

Color space                              : YUV

Chroma subsampling                       : 4:2:0

Bit depth                                : 8 bits

Scan type                                : Progressive

Bits/(Pixel*Frame)                       : 0.266

Stream size                              : 6.95 GiB (96%)

Language                                 : English

Default                                  : Yes

Forced                                   : No

Color range                              : Limited

Color primaries                          : BT.709

Transfer characteristics                 : BT.709

Matrix coefficients                      : BT.709



Audio

ID                                       : 2

Format                                   : AC-3

Format/Info                              : Audio Coding 3

Commercial name                          : Dolby Digital

Codec ID                                 : A_AC3

Duration                                 : 1 h 42 min

Bit rate mode                            : Constant

Bit rate                                 : 384 kb/s

Channel(s)                               : 6 channels

Channel layout                           : L R C LFE Ls Rs

Sampling rate                            : 48.0 kHz

Frame rate                               : 31.250 FPS (1536 SPF)

Compression mode                         : Lossy

Stream size                              : 280 MiB (4%)

Language                                 : English

Service kind                             : Complete Main

Default                                  : Yes

Forced                                   : No



Text

ID                                       : 3

Format                                   : UTF-8

Codec ID                                 : S_TEXT/UTF8

Codec ID/Info                            : UTF-8 Plain Text

Duration                                 : 1 h 41 min

Bit rate                                 : 42 b/s

Count of elements                        : 1132

Stream size                              : 31.6 KiB (0%)

Title                                    : SDH

Language                                 : English

Default                                  : Yes

Forced                                   : No



Menu

00:00:00.000                             : en:1

00:06:37.000                             : en:2

00:12:20.000                             : en:3

00:20:20.000                             : en:4

00:25:22.000                             : en:5

00:31:49.000                             : en:6

00:38:05.000                             : en:7

00:44:55.000                             : en:8

00:51:17.000                             : en:9

00:58:01.000                             : en:10

01:03:39.000                             : en:11

01:09:53.000                             : en:12

01:17:01.000                             : en:13

01:23:18.000                             : en:14

01:29:26.000                             : en:15

01:36:38.000                             : en:16


悠悠MP4_MP4电影下载_非法之徒 Outlawed.2018.1080p.AMZN.WEBRip.DD5.1.x264-NOGRP 7.23GB悠悠MP4_MP4电影下载_非法之徒 Outlawed.2018.1080p.AMZN.WEBRip.DD5.1.x264-NOGRP 7.23GB悠悠MP4_MP4电影下载_非法之徒 Outlawed.2018.1080p.AMZN.WEBRip.DD5.1.x264-NOGRP 7.23GB

                                                                                           

提示:如迅雷下载提示"任务出错"、"因版权无法下载",请尝试【迅雷5】
上传的附件:
最新回复 (0)
返回
本站所有资源均收集自互联网,没有提供影片资源存储, 也未参与录制、上传,若本站收录的资源无意侵犯了您的权益, 请联系邮箱:gogoimgs#gmail.com(#=@)