[更早] [欧美] [喜剧] [WEB-1080P] 相伴到永远 The.Favor.1994.1080p.AMZN.WEBRip.DDP2.0.x264-PLISSKEN 5.88GB

uump4 7天前 118

悠悠MP4_MP4电影下载_相伴到永远 The.Favor.1994.1080p.AMZN.WEBRip.DDP2.0.x264-PLISSKEN 5.88GB
悠悠MP4_MP4电影下载_相伴到永远 The.Favor.1994.1080p.AMZN.WEBRip.DDP2.0.x264-PLISSKEN 5.88GB

◎译  名 相伴到永远
◎片  名 The Favor
◎年  代 1994
◎产  地 美国
◎类  别 喜剧 / 爱情
◎语  言 英语
◎上映日期 1994-04-29
◎IMDb评分  5.2/10 from 2572 users
◎IMDb链接  https://www.imdb.com/title/tt0109783
◎豆瓣评分 0/10 from 0 users
◎豆瓣链接 https://movie.douban.com/subject/1294623/
◎片  长 97 分钟
◎导  演 唐纳德·佩特瑞 Donald Petrie
◎主  演 哈莉·简·科扎克 Harley Jane Kozak
       伊丽莎白·麦戈文 Elizabeth McGovern
       比尔·普尔曼 Bill Pullman
       布拉德·皮特 Brad Pitt
       拉里·米勒 Larry Miller
       肯·沃尔 Ken Wahl
       金杰·奥尔西 Ginger Orsi
       莉·安·奥尔西 Leigh Ann Orsi
       约翰·霍恩 John Horn
       卡尔·金 Carl King
       罗伯特·比赫莱尔 Robert Biheller
       盖瑞·波维尔 Gary Powell
       穆特里·帕滕 Moultrie Patten
       乔尔·比森 Joel Beeson
       金·沃克 Kim Walker
       克莱尔·斯坦斯菲尔德 Claire Stansfield
       澳澜·琼斯 O-Lan Jones
       明迪·斯特林 Mindy Sterling
       乔丹·克里斯托弗·迈克尔 Jordan Christopher Michael
       霍兰德·泰勒 Holland Taylor
       黛博拉·怀特 Deborah White


◎标  签 BradPitt | 美国 | 爱情 | 布拉德·皮特 | 美国电影 | 美國 | 我的电影5 | T

◎简  介  

  Kathy is married to Peter. Now she can't help but wonder how things could have been if she got together with her old boyfriend, Tom. Being married prevents from doing that so she asks her friend, Emily to go to him and see if she can sleep with him then tell Kathy how it was. When Emily tells Kathy that things were awesome, their friendship suffers, at the same so does Kathy's marriage. Things get even more complicated when Emily learns she's pregnant, and she's not certain if it's Tom's or her boyfriend, Elliot.

  谷歌为您翻译:
  凯西嫁给了彼得。现在她忍不住想知道如果她和她的前男友汤姆在一起会怎么样。结婚阻止这样做,因此她要求朋友艾米丽(Emily)去找他,看看她是否可以和他一起睡,然后告诉凯西(Kathy)情况如何。当艾米丽(Emily)告诉凯西(Kathy)事情真棒时,他们的友谊受到了损害,凯西(Kathy)的婚姻也受到了损害。当艾米丽得知自己怀孕了,事情就变得更加复杂了,她不确定是汤姆的还是男友艾略特。

  腾讯为您翻译:
  。。。。

  本站为您翻译:
  凯西嫁给了彼得。现在她情不自禁地想,如果她和她的前男友汤姆在一起,事情会变成什么样子。因为结了婚,她不能这样做,所以她请她的朋友艾米丽去找他,看看她能不能和他上床,然后告诉凯西这是怎么回事。当艾米丽告诉凯西一切都很棒时,他们的友谊受到了影响,凯西的婚姻也受到了影响。当艾米丽得知自己怀孕后,事情变得更加复杂,她不确定是汤姆的男友还是她的男友艾略特。



Video

ID                                       : 1

Format                                   : AVC

Format/Info                              : Advanced Video Codec

Format profile                           : High@L4

Format settings                          : CABAC / 4 Ref Frames

Format settings, CABAC                   : Yes

Format settings, Reference frames        : 4 frames

Codec ID                                 : V_MPEG4/ISO/AVC

Duration                                 : 1 h 37 min

Bit rate                                 : 8 380 kb/s

Width                                    : 1 920 pixels

Height                                   : 1 080 pixels

Display aspect ratio                     : 16:9

Frame rate mode                          : Constant

Frame rate                               : 23.976 (24000/1001/34539) FPS

Color space                              : YUV

Chroma subsampling                       : 4:2:0

Bit depth                                : 8 bits

Scan type                                : Progressive

Bits/(Pixel*Frame)                       : 0.169

Stream size                              : 5.72 GiB (97%)

Default                                  : Yes

Forced                                   : No

Color range                              : Limited

Color primaries                          : BT.709

Transfer characteristics                 : BT.709

Matrix coefficients                      : BT.709



Audio

ID                                       : 2

Format                                   : E-AC-3

Format/Info                              : Enhanced AC-3

Commercial name                          : Dolby Digital Plus

Codec ID                                 : A_EAC3

Duration                                 : 1 h 37 min

Bit rate mode                            : Constant

Bit rate                                 : 224 kb/s

Channel(s)                               : 2 channels

Channel layout                           : L R

Sampling rate                            : 48.0 kHz

Frame rate                               : 31.250 FPS (1536 SPF)

Compression mode                         : Lossy

Stream size                              : 157 MiB (3%)

Language                                 : English

Service kind                             : Complete Main

Default                                  : Yes

Forced                                   : No



Text

ID                                       : 3

Format                                   : UTF-8

Codec ID                                 : S_TEXT/UTF8

Codec ID/Info                            : UTF-8 Plain Text

Duration                                 : 1 h 35 min

Bit rate                                 : 69 b/s

Count of elements                        : 1739

Stream size                              : 48.4 KiB (0%)

Language                                 : English

Default                                  : No

Forced                                   : No


悠悠MP4_MP4电影下载_相伴到永远 The.Favor.1994.1080p.AMZN.WEBRip.DDP2.0.x264-PLISSKEN 5.88GB悠悠MP4_MP4电影下载_相伴到永远 The.Favor.1994.1080p.AMZN.WEBRip.DDP2.0.x264-PLISSKEN 5.88GB悠悠MP4_MP4电影下载_相伴到永远 The.Favor.1994.1080p.AMZN.WEBRip.DDP2.0.x264-PLISSKEN 5.88GB

                                                                                           

提示:如迅雷下载提示"任务出错"、"因版权无法下载",请尝试【迅雷5】
上传的附件:
最新回复 (0)
返回
本站所有资源均收集自互联网,没有提供影片资源存储, 也未参与录制、上传,若本站收录的资源无意侵犯了您的权益, 请联系邮箱:gogoimgs#gmail.com(#=@)