[2017] [其他] [恐怖] [BD-1080P] 血色圣诞 Christmas.Blood.2017.NORWEGIAN.1080p.BluRay.x264.DD5.1-EDPH 10.82GB

uump4 7天前 151

悠悠MP4_MP4电影下载_血色圣诞 Christmas.Blood.2017.NORWEGIAN.1080p.BluRay.x264.DD5.1-EDPH 10.82GB
悠悠MP4_MP4电影下载_血色圣诞 Christmas.Blood.2017.NORWEGIAN.1080p.BluRay.x264.DD5.1-EDPH 10.82GB

◎译  名 血色圣诞 / Christmas Blood
◎片  名 Juleblod
◎年  代 2017
◎产  地 挪威
◎类  别 恐怖
◎语  言 挪威语
◎上映日期 2017-11-02(挪威)
◎IMDb评分  4.1/10 from 228 users
◎IMDb链接  https://www.imdb.com/title/tt6228890
◎豆瓣评分 0/10 from 0 users
◎豆瓣链接 https://movie.douban.com/subject/27104059/
◎片  长 102分钟

◎标  签 犯罪 | 挪威 | 惊悚 | 悬疑 | 恐怖

◎简  介  

  一个连环杀手连续13个冬天在圣诞节前夕行凶,马上就要圣诞节了,调查人员与时间赛跑,争分夺秒想要弄清楚这位圣诞杀手的下一个目标是什么。


Video

ID                                       : 1

Format                                   : AVC

Format/Info                              : Advanced Video Codec

Format profile                           : High@L4.1

Format settings                          : CABAC / 5 Ref Frames

Format settings, CABAC                   : Yes

Format settings, Reference frames        : 5 frames

Codec ID                                 : V_MPEG4/ISO/AVC

Duration                                 : 1 h 44 min

Bit rate                                 : 14.1 Mb/s

Width                                    : 1 920 pixels

Height                                   : 804 pixels

Display aspect ratio                     : 2.40:1

Frame rate mode                          : Constant

Frame rate                               : 24.000 FPS

Color space                              : YUV

Chroma subsampling                       : 4:2:0

Bit depth                                : 8 bits

Scan type                                : Progressive

Bits/(Pixel*Frame)                       : 0.380

Stream size                              : 10.3 GiB (95%)

Writing library                          : x264 core 160 r3009 4c9b076

Encoding settings                        : cabac=1 / ref=5 / deblock=1:-3:-3 / analyse=0x3:0x133 / me=umh / subme=11 / psy=1 / psy_rd=1.02:0.00 / mixed_ref=1 / me_range=32 / chroma_me=1 / trellis=2 / 8x8dct=1 / cqm=0 / deadzone=21,11 / fast_pskip=0 / chroma_qp_offset=-2 / threads=12 / lookahead_threads=3 / sliced_threads=0 / nr=0 / decimate=0 / interlaced=0 / bluray_compat=0 / constrained_intra=0 / bframes=16 / b_pyramid=2 / b_adapt=2 / b_bias=0 / direct=3 / weightb=1 / open_gop=0 / weightp=2 / keyint=250 / keyint_min=24 / scenecut=40 / intra_refresh=0 / rc_lookahead=250 / rc=crf / mbtree=0 / crf=17.2 / qcomp=0.60 / qpmin=0 / qpmax=69 / qpstep=4 / vbv_maxrate=62500 / vbv_bufsize=78125 / crf_max=0.0 / nal_hrd=none / filler=0 / ip_ratio=1.30 / pb_ratio=1.20 / aq=3:0.80

Language                                 : English

Default                                  : Yes

Forced                                   : No

Color range                              : Limited

Color primaries                          : BT.709

Matrix coefficients                      : BT.709



Audio

ID                                       : 2

Format                                   : AC-3

Format/Info                              : Audio Coding 3

Commercial name                          : Dolby Digital

Codec ID                                 : A_AC3

Duration                                 : 1 h 44 min

Bit rate mode                            : Constant

Bit rate                                 : 640 kb/s

Channel(s)                               : 6 channels

Channel layout                           : L R C LFE Ls Rs

Sampling rate                            : 48.0 kHz

Frame rate                               : 31.250 FPS (1536 SPF)

Compression mode                         : Lossy

Stream size                              : 480 MiB (4%)

Language                                 : Norwegian

Service kind                             : Complete Main

Default                                  : Yes

Forced                                   : No



Text #1

ID                                       : 3

Format                                   : UTF-8

Codec ID                                 : S_TEXT/UTF8

Codec ID/Info                            : UTF-8 Plain Text

Duration                                 : 1 h 39 min

Bit rate                                 : 24 b/s

Count of elements                        : 531

Stream size                              : 17.5 KiB (0%)

Language                                 : English

Default                                  : Yes

Forced                                   : No



Text #2

ID                                       : 4

Format                                   : PGS

Muxing mode                              : zlib

Codec ID                                 : S_HDMV/PGS

Codec ID/Info                            : Picture based subtitle format used on BDs/HD-DVDs

Duration                                 : 1 h 38 min

Bit rate                                 : 11.8 kb/s

Count of elements                        : 952

Stream size                              : 8.31 MiB (0%)

Language                                 : Norwegian

Default                                  : No

Forced                                   : No



Text #3

ID                                       : 5

Format                                   : PGS

Muxing mode                              : zlib

Codec ID                                 : S_HDMV/PGS

Codec ID/Info                            : Picture based subtitle format used on BDs/HD-DVDs

Duration                                 : 1 h 44 min

Bit rate                                 : 12.6 kb/s

Count of elements                        : 851

Stream size                              : 9.39 MiB (0%)

Language                                 : Danish

Default                                  : No

Forced                                   : No



Text #4

ID                                       : 6

Format                                   : PGS

Muxing mode                              : zlib

Codec ID                                 : S_HDMV/PGS

Codec ID/Info                            : Picture based subtitle format used on BDs/HD-DVDs

Duration                                 : 1 h 44 min

Bit rate                                 : 13.2 kb/s

Count of elements                        : 853

Stream size                              : 9.87 MiB (0%)

Language                                 : Finnish

Default                                  : No

Forced                                   : No



Text #5

ID                                       : 7

Format                                   : PGS

Muxing mode                              : zlib

Codec ID                                 : S_HDMV/PGS

Codec ID/Info                            : Picture based subtitle format used on BDs/HD-DVDs

Duration                                 : 1 h 44 min

Bit rate                                 : 12.5 kb/s

Count of elements                        : 851

Stream size                              : 9.30 MiB (0%)

Language                                 : Swedish

Default                                  : No

Forced                                   : No



Menu

00:00:00.000                             : en:Chapter 01

00:09:17.875                             : en:Chapter 02

00:27:45.041                             : en:Chapter 03

00:35:10.708                             : en:Chapter 04

00:44:12.666                             : en:Chapter 05

00:55:35.125                             : en:Chapter 06

01:07:41.291                             : en:Chapter 07

01:19:36.666                             : en:Chapter 08

01:32:01.458                             : en:Chapter 09

01:42:19.333                             : en:Chapter 10


悠悠MP4_MP4电影下载_血色圣诞 Christmas.Blood.2017.NORWEGIAN.1080p.BluRay.x264.DD5.1-EDPH 10.82GB悠悠MP4_MP4电影下载_血色圣诞 Christmas.Blood.2017.NORWEGIAN.1080p.BluRay.x264.DD5.1-EDPH 10.82GB悠悠MP4_MP4电影下载_血色圣诞 Christmas.Blood.2017.NORWEGIAN.1080p.BluRay.x264.DD5.1-EDPH 10.82GB

                                                                                           

提示:如迅雷下载提示"任务出错"、"因版权无法下载",请尝试【迅雷5】
最新回复 (0)
返回
本站所有资源均收集自互联网,没有提供影片资源存储, 也未参与录制、上传,若本站收录的资源无意侵犯了您的权益, 请联系邮箱:gogoimgs#gmail.com(#=@)