[2010] [其他] [剧情] [WEB-1080P] 色彩斑斓 A.Million.Colours.2011.1080p.AMZN.WEBRip.DDP5.1.x264-ISA 8.47GB

uump4 1月前 237

悠悠MP4_MP4电影下载_色彩斑斓 A.Million.Colours.2011.1080p.AMZN.WEBRip.DDP5.1.x264-ISA 8.47GB
悠悠MP4_MP4电影下载_色彩斑斓 A.Million.Colours.2011.1080p.AMZN.WEBRip.DDP5.1.x264-ISA 8.47GB

◎译  名 色彩斑斓
◎片  名 A Million Colours
◎年  代 2010
◎产  地 加拿大 / 南非
◎类  别 剧情
◎语  言 英语
◎上映日期 2010
◎IMDb评分  6.6/10 from 242 users
◎IMDb链接  https://www.imdb.com/title/tt1622961
◎豆瓣评分 0/10 from 0 users
◎豆瓣链接 https://movie.douban.com/subject/5154376/
◎片  长 USA: 110 分钟
◎编  剧 Andre Pieterse
◎主  演 斯特里奥·萨万特 Stelio Savante
       帕特里克·莫佛肯 Patrick Mofokeng


◎标  签 南非 | 剧情 | 战争 | 南非电影 | 种族隔离 | 2010 | 欧洲电影 | 外国电影

◎简  介  

  This is the true story of Muntu Ndebele and Norman Knox; teenaged friends, the two were on opposite sides of the violent Apartheid struggle of the 80s, but had a miraculous reunion as friends after Nelson Mandela became President in 1994.

  谷歌为您翻译:
  这是Muntu Ndebele和Norman Knox的真实故事;十几岁的朋友,两人处于80年代激烈的种族隔离斗争的对立面,但是在纳尔逊·曼德拉(Nelson Mandela)1994年成为总统后,他们像朋友一样团圆。

  腾讯为您翻译:
  这是蒙图·恩德贝莱(Muntu Ndebele)和诺曼·诺克斯(Norman Knox)的真实故事,他们是十几岁的朋友,在80年代的暴力种族隔离斗争中站在对立的一边,但在1994年纳尔逊·曼德拉(Nelson Mandela)就任总统后,他们奇迹般地重逢。

  本站为您翻译:
  这是蒙图 · 恩德贝勒和诺曼 · 诺克斯的真实故事; 他们是十几岁的朋友,在80年代暴力的种族隔离斗争中站在对立的一方,但在纳尔逊 · 曼德拉于1994年成为总统后奇迹般地重逢。



Video

ID                                       : 1

Format                                   : AVC

Format/Info                              : Advanced Video Codec

Format profile                           : High@L4

Format settings                          : CABAC / 4 Ref Frames

Format settings, CABAC                   : Yes

Format settings, Reference frames        : 4 frames

Codec ID                                 : V_MPEG4/ISO/AVC

Duration                                 : 2 h 0 min

Bit rate mode                            : Constant

Bit rate                                 : 9 440 kb/s

Nominal bit rate                         : 10 000 kb/s

Width                                    : 1 920 pixels

Height                                   : 816 pixels

Display aspect ratio                     : 2.35:1

Frame rate mode                          : Constant

Frame rate                               : 24.000 FPS

Color space                              : YUV

Chroma subsampling                       : 4:2:0

Bit depth                                : 8 bits

Scan type                                : Progressive

Bits/(Pixel*Frame)                       : 0.251

Stream size                              : 7.93 GiB (94%)

Language                                 : English

Default                                  : Yes

Forced                                   : No

Color range                              : Limited

Color primaries                          : BT.709

Transfer characteristics                 : BT.709

Matrix coefficients                      : BT.709



Audio

ID                                       : 2

Format                                   : E-AC-3

Format/Info                              : Enhanced AC-3

Commercial name                          : Dolby Digital Plus

Codec ID                                 : A_EAC3

Duration                                 : 2 h 0 min

Bit rate mode                            : Constant

Bit rate                                 : 640 kb/s

Channel(s)                               : 6 channels

Channel layout                           : L R C LFE Ls Rs

Sampling rate                            : 48.0 kHz

Frame rate                               : 31.250 FPS (1536 SPF)

Compression mode                         : Lossy

Stream size                              : 550 MiB (6%)

Language                                 : English

Service kind                             : Complete Main

Default                                  : No

Forced                                   : No



Text

ID                                       : 3

Format                                   : UTF-8

Codec ID                                 : S_TEXT/UTF8

Codec ID/Info                            : UTF-8 Plain Text

Duration                                 : 1 h 55 min

Bit rate                                 : 42 b/s

Count of elements                        : 1351

Stream size                              : 35.4 KiB (0%)

Title                                    : SDH

Language                                 : English

Default                                  : No

Forced                                   : No


悠悠MP4_MP4电影下载_色彩斑斓 A.Million.Colours.2011.1080p.AMZN.WEBRip.DDP5.1.x264-ISA 8.47GB悠悠MP4_MP4电影下载_色彩斑斓 A.Million.Colours.2011.1080p.AMZN.WEBRip.DDP5.1.x264-ISA 8.47GB悠悠MP4_MP4电影下载_色彩斑斓 A.Million.Colours.2011.1080p.AMZN.WEBRip.DDP5.1.x264-ISA 8.47GB

                                                                                           

提示:如迅雷下载提示"任务出错"、"因版权无法下载",请尝试【迅雷5】
上传的附件:
最新回复 (0)
返回
本站所有资源均收集自互联网,没有提供影片资源存储, 也未参与录制、上传,若本站收录的资源无意侵犯了您的权益, 请联系邮箱:gogoimgs#gmail.com(#=@)