[2019] [欧美] [恐怖] [BD-720P] 玩偶盒惊魂/玩具盒惊魂 The.Jack.in.the.Box.2019.720p.BluRay.x264-FREEMAN 1.20GB

uump4 1月前 265

悠悠MP4_MP4电影下载_玩偶盒惊魂/玩具盒惊魂 The.Jack.in.the.Box.2019.720p.BluRay.x264-FREEMAN 1.20GB
悠悠MP4_MP4电影下载_玩偶盒惊魂/玩具盒惊魂 The.Jack.in.the.Box.2019.720p.BluRay.x264-FREEMAN 1.20GB

◎译  名 玩偶盒惊魂 / 玩具盒惊魂
◎片  名 The Jack in the Box
◎年  代 2019
◎产  地 英国
◎类  别 恐怖
◎语  言 英语
◎上映日期 2019-11-09(英国)
◎IMDb评分  4.1/10 from 538 users
◎IMDb链接  https://www.imdb.com/title/tt10645682
◎豆瓣评分 0/10 from 0 users
◎豆瓣链接 https://movie.douban.com/subject/34781590/
◎主  演 罗伯特·奈尔恩 Robert Nairne
       斯泰西·琳恩·克罗 Stacey Lynn Crowe


◎标  签 小丑玩偶 | 恐怖 | 惊悚 | 美国 | 英国恐怖电影 | 美国电影 | 2020 | 很一般

◎简  介  

  When a vintage Jack-in-the-box is un-earthed and opened, it's new owners soon have reason to believe the creepy clown doll within has a life of it's own.

  谷歌为您翻译:
  当一个老式的“千斤顶”盒子出土并打开时,它的新主人很快就有理由相信其中令人毛骨悚然的小丑娃娃拥有自己的生命。

  腾讯为您翻译:
  当一个古董盒子杰克出土并打开时,它的新主人很快就有理由相信里面的令人毛骨悚然的小丑娃娃有它自己的生命。

  本站为您翻译:
  当一个老式的玩偶盒被拆除并打开时,它的新主人很快就有理由相信这个令人毛骨悚然的小丑玩偶有它自己的生命。



Video

ID                                       : 1

Format                                   : AVC

Format/Info                              : Advanced Video Codec

Format profile                           : High@L4.1

Format settings                          : CABAC / 8 Ref Frames

Format settings, CABAC                   : Yes

Format settings, Reference frames        : 8 frames

Codec ID                                 : V_MPEG4/ISO/AVC

Duration                                 : 1 h 27 min

Bit rate                                 : 1 318 kb/s

Width                                    : 1 280 pixels

Height                                   : 544 pixels

Display aspect ratio                     : 2.35:1

Frame rate mode                          : Constant

Frame rate                               : 23.976 (24000/1001/34539) FPS

Color space                              : YUV

Chroma subsampling                       : 4:2:0

Bit depth                                : 8 bits

Scan type                                : Progressive

Bits/(Pixel*Frame)                       : 0.079

Stream size                              : 825 MiB (67%)

Writing library                          : x264 core 161 r3018 db0d417

Encoding settings                        : cabac=1 / ref=8 / deblock=1:-3:-3 / analyse=0x3:0x133 / me=umh / subme=9 / psy=1 / psy_rd=1.00:0.00 / mixed_ref=1 / me_range=16 / chroma_me=1 / trellis=2 / 8x8dct=1 / cqm=0 / deadzone=21,11 / fast_pskip=1 / chroma_qp_offset=-2 / threads=17 / lookahead_threads=1 / sliced_threads=0 / nr=0 / decimate=1 / interlaced=0 / bluray_compat=0 / constrained_intra=0 / bframes=3 / b_pyramid=2 / b_adapt=2 / b_bias=0 / direct=3 / weightb=1 / open_gop=0 / weightp=2 / keyint=250 / keyint_min=23 / scenecut=40 / intra_refresh=0 / rc_lookahead=60 / rc=crf / mbtree=1 / crf=17.0 / qcomp=0.60 / qpmin=0 / qpmax=69 / qpstep=4 / ip_ratio=1.40 / aq=3:0.80

Language                                 : English

Default                                  : Yes

Forced                                   : No

Color range                              : Limited

Matrix coefficients                      : BT.709



Audio

ID                                       : 2

Format                                   : AC-3

Format/Info                              : Audio Coding 3

Commercial name                          : Dolby Digital

Codec ID                                 : A_AC3

Duration                                 : 1 h 27 min

Bit rate mode                            : Constant

Bit rate                                 : 640 kb/s

Channel(s)                               : 6 channels

Channel layout                           : L R C LFE Ls Rs

Sampling rate                            : 48.0 kHz

Frame rate                               : 31.250 FPS (1536 SPF)

Compression mode                         : Lossy

Stream size                              : 401 MiB (33%)

Title                                    : ac3

Language                                 : English

Service kind                             : Complete Main

Default                                  : Yes

Forced                                   : No



Menu

00:00:00.000                             : en:00:00:00.000

00:10:49.649                             : en:00:10:49.649

00:21:05.264                             : en:00:21:05.264

00:33:33.011                             : en:00:33:33.011

00:44:28.666                             : en:00:44:28.666

00:55:31.328                             : en:00:55:31.328

01:05:57.954                             : en:01:05:57.954

01:15:24.520                             : en:01:15:24.520

01:25:17.112                             : en:01:25:17.112


悠悠MP4_MP4电影下载_玩偶盒惊魂/玩具盒惊魂 The.Jack.in.the.Box.2019.720p.BluRay.x264-FREEMAN 1.20GB

                                                                                           

提示:如迅雷下载提示"任务出错"、"因版权无法下载",请尝试【迅雷5】
上传的附件:
最新回复 (0)
返回
本站所有资源均收集自互联网,没有提供影片资源存储, 也未参与录制、上传,若本站收录的资源无意侵犯了您的权益, 请联系邮箱:gogoimgs#gmail.com(#=@)