[2017] [其他] [其他] [WEB-1080P] 可口的你/为爱“吃”狂 Delectable.You.2017.FRENCH.1080p.WEBRip.x264-VXT 293.05MB

uump4 1月前 198

悠悠MP4_MP4电影下载_可口的你/为爱“吃”狂 Delectable.You.2017.FRENCH.1080p.WEBRip.x264-VXT 293.05MB
悠悠MP4_MP4电影下载_可口的你/为爱“吃”狂 Delectable.You.2017.FRENCH.1080p.WEBRip.x264-VXT 293.05MB

◎译  名 可口的你 / Delectable You / 为爱“吃”狂 / 吃吃的爱
◎片  名 Belle à croquer
◎年  代 2017
◎产  地 法国
◎类  别 短片
◎语  言 英语 / 法语
◎上映日期 2017-05-25(法国)
◎IMDb评分  6.6/10 from 187 users
◎IMDb链接  https://www.imdb.com/title/tt6920616
◎豆瓣评分 7.8/10 from 237 users
◎豆瓣链接 https://movie.douban.com/subject/27109779/
◎主  演 凯瑟琳·德纳芙 Catherine Deneuve


◎标  签 短片 | 法国 | 奇幻 | 法国电影 | 爱情 | 默片 | 柯首映 | 2017

◎简  介  

  Oscar Mongo?t, a gourmet cannibal, burns with love for a neighbor in his building, the very vegetal Miss Carrot. But this passion seems destined to fail: she is vegetarian, while he has a severe case of vegetable phobia. Things take a drastic turn the evening she invites him to dinner.

  谷歌为您翻译:
  美食家食人族奥斯卡·蒙戈(Oscar Mongo?t)对自己建筑物中的一个邻居,即植物丰富的卡洛小姐(Miss Carrot)充满了爱意。但是这种激情注定要失败:她是素食主义者,而他患有严重的蔬菜恐惧症。她邀请他去吃饭的那个晚上,事情发生了急剧变化。

  腾讯为您翻译:
  奥斯卡·蒙哥特,一个食人美食家,对他大楼里的一个邻居充满了爱,她就是非常素食的胡萝卜小姐。但这种热情似乎注定要失败:她是素食者,而他有严重的蔬菜恐惧症。她邀请他共进晚餐的那晚,事情发生了剧变。

  本站为您翻译:
  一个食人美食家奥斯卡 · 蒙戈特,爱上了他楼里的一位邻居,一位素食主义的胡萝卜小姐。但这种热情似乎注定要失败: 她是素食主义者,而他患有严重的蔬菜恐惧症。她邀请他共进晚餐的那个晚上,事情发生了急剧的转变。



Video

ID                                       : 1

Format                                   : AVC

Format/Info                              : Advanced Video Codec

Format profile                           : High@L4.1

Format settings                          : CABAC / 4 Ref Frames

Format settings, CABAC                   : Yes

Format settings, Reference frames        : 4 frames

Codec ID                                 : avc1

Codec ID/Info                            : Advanced Video Coding

Duration                                 : 15 min 0 s

Bit rate                                 : 2 500 kb/s

Width                                    : 1 440 pixels

Height                                   : 1 080 pixels

Display aspect ratio                     : 4:3

Frame rate mode                          : Constant

Frame rate                               : 24.000 FPS

Color space                              : YUV

Chroma subsampling                       : 4:2:0

Bit depth                                : 8 bits

Scan type                                : Progressive

Bits/(Pixel*Frame)                       : 0.067

Stream size                              : 268 MiB (92%)

Writing library                          : x264 core 152 r2851M ba24899

Encoding settings                        : cabac=1 / ref=4 / deblock=1:-1:-1 / analyse=0x3:0x113 / me=umh / subme=9 / psy=1 / psy_rd=1.00:0.15 / mixed_ref=1 / me_range=24 / chroma_me=1 / trellis=2 / 8x8dct=1 / cqm=0 / deadzone=21,11 / fast_pskip=1 / chroma_qp_offset=-3 / threads=16 / lookahead_threads=4 / sliced_threads=0 / nr=0 / decimate=1 / interlaced=0 / bluray_compat=0 / constrained_intra=0 / bframes=3 / b_pyramid=2 / b_adapt=2 / b_bias=0 / direct=3 / weightb=1 / open_gop=0 / weightp=2 / keyint=250 / keyint_min=25 / scenecut=40 / intra_refresh=0 / rc_lookahead=50 / rc=2pass / mbtree=1 / bitrate=2500 / ratetol=1.0 / qcomp=0.60 / qpmin=0 / qpmax=69 / qpstep=4 / cplxblur=20.0 / qblur=0.5 / vbv_maxrate=31250 / vbv_bufsize=31250 / nal_hrd=none / filler=0 / ip_ratio=1.40 / aq=3:1.00

Encoded date                             : UTC 2020-10-26 11:59:09

Tagged date                              : UTC 2020-10-26 11:59:09

Codec configuration box                  : avcC



Audio

ID                                       : 2

Format                                   : AAC LC

Format/Info                              : Advanced Audio Codec Low Complexity

Codec ID                                 : mp4a-40-2

Duration                                 : 15 min 0 s

Duration_LastFrame                       : -11 ms

Bit rate mode                            : Constant

Bit rate                                 : 224 kb/s

Channel(s)                               : 2 channels

Channel layout                           : L R

Sampling rate                            : 48.0 kHz

Frame rate                               : 46.875 FPS (1024 SPF)

Compression mode                         : Lossy

Stream size                              : 24.0 MiB (8%)

Language                                 : French

Default                                  : Yes

Alternate group                          : 1

Encoded date                             : UTC 2020-10-26 11:59:09

Tagged date                              : UTC 2020-10-26 11:59:09


悠悠MP4_MP4电影下载_可口的你/为爱“吃”狂 Delectable.You.2017.FRENCH.1080p.WEBRip.x264-VXT 293.05MB悠悠MP4_MP4电影下载_可口的你/为爱“吃”狂 Delectable.You.2017.FRENCH.1080p.WEBRip.x264-VXT 293.05MB悠悠MP4_MP4电影下载_可口的你/为爱“吃”狂 Delectable.You.2017.FRENCH.1080p.WEBRip.x264-VXT 293.05MB

                                                                                           

提示:如迅雷下载提示"任务出错"、"因版权无法下载",请尝试【迅雷5】
上传的附件:
最新回复 (0)
返回
本站所有资源均收集自互联网,没有提供影片资源存储, 也未参与录制、上传,若本站收录的资源无意侵犯了您的权益, 请联系邮箱:gogoimgs#gmail.com(#=@)