[2019] [欧美] [恐怖] [WEB-1080P] 伊芙 Eve.2019.1080p.AMZN.WEBRip.DD5.1.x264-FGT 4.97GB

uump4 1月前 382

悠悠MP4_MP4电影下载_伊芙 Eve.2019.1080p.AMZN.WEBRip.DD5.1.x264-FGT 4.97GB
悠悠MP4_MP4电影下载_伊芙 Eve.2019.1080p.AMZN.WEBRip.DD5.1.x264-FGT 4.97GB

◎译  名 伊芙/Host
◎片  名 Eve
◎年  代 2019
◎产  地 英国
◎类  别 恐怖
◎语  言 英语
◎上映日期 2019-10-19(英国) / 2020-02-14(美国)
◎IMDb评分  4.1/10 from 148 users
◎IMDb链接  https://www.imdb.com/title/tt6189372/
◎豆瓣评分 /10 from 0 users
◎豆瓣链接 https://movie.douban.com/subject/34968312/
◎片  长 76分钟
◎主  演 安德鲁·李·波兹 Andrew Lee Potts
       拉哈珊·斯通 Rhashan Stone
       克里斯汀·马扎诺 Christine Marzano
       张茵 Yennis Cheung
       萨沙·弗罗斯特 Sasha Frost
       格雷厄姆·福克斯 Grahame Fox
       乔纳森·福布斯 Jonathan Forbes
       莱斯·施拉普内尔 Lex Shrapnel
       本·厄特利 Ben Uttley

◎标  签 英国 | 恐怖 | 2019

◎简  介

  When a talented actress fails to land the role of her dreams, she becomes obsessed with the up-and-comer who gets the part.

  谷歌为您翻译:
  当才华横溢的女演员未能实现梦想的角色时,她就会迷上了扮演这一角色的新人。

  腾讯为您翻译:
  当一位才华横溢的女演员未能获得她梦寐以求的角色时,她就会痴迷于得到这个角色的后起之秀。

  本站为您翻译:
  当一个有才华的女演员没能得到她梦想中的角色时,她就会对得到这个角色的后起之秀着迷。



Video

ID                                       : 1

Format                                   : AVC

Format/Info                              : Advanced Video Codec

Format profile                           : High@L4

Format settings                          : CABAC / 4 Ref Frames

Format settings, CABAC                   : Yes

Format settings, Reference frames        : 4 frames

Codec ID                                 : V_MPEG4/ISO/AVC

Duration                                 : 1 h 15 min

Bit rate mode                            : Constant

Bit rate                                 : 9 031 kb/s

Nominal bit rate                         : 10 000 kb/s

Width                                    : 1 920 pixels

Height                                   : 816 pixels

Display aspect ratio                     : 2.35:1

Frame rate mode                          : Constant

Frame rate                               : 24.000 FPS

Color space                              : YUV

Chroma subsampling                       : 4:2:0

Bit depth                                : 8 bits

Scan type                                : Progressive

Bits/(Pixel*Frame)                       : 0.240

Stream size                              : 4.77 GiB (96%)

Title                                    : Eve.2019.1080p.AMZN.WEBRip.DD5.1.x264-FGT

Language                                 : English

Default                                  : Yes

Forced                                   : No

Color range                              : Limited

Color primaries                          : BT.709

Transfer characteristics                 : BT.709

Matrix coefficients                      : BT.709



Audio

ID                                       : 2

Format                                   : AC-3

Format/Info                              : Audio Coding 3

Commercial name                          : Dolby Digital

Codec ID                                 : A_AC3

Duration                                 : 1 h 15 min

Bit rate mode                            : Constant

Bit rate                                 : 384 kb/s

Channel(s)                               : 6 channels

Channel layout                           : L R C LFE Ls Rs

Sampling rate                            : 48.0 kHz

Frame rate                               : 31.250 FPS (1536 SPF)

Compression mode                         : Lossy

Stream size                              : 208 MiB (4%)

Title                                    : Eve.2019.1080p.AMZN.WEBRip.DD5.1.x264-FGT

Language                                 : English

Service kind                             : Complete Main

Default                                  : Yes

Forced                                   : No



Text

ID                                       : 3

Format                                   : UTF-8

Codec ID                                 : S_TEXT/UTF8

Codec ID/Info                            : UTF-8 Plain Text

Duration                                 : 1 h 13 min

Bit rate                                 : 24 b/s

Count of elements                        : 471

Stream size                              : 13.4 KiB (0%)

Title                                    : SDH

Language                                 : English

Default                                  : Yes

Forced                                   : No



Menu

00:00:00.000                             : en:1

00:03:01.000                             : en:2

00:12:08.000                             : en:3

00:22:19.000                             : en:4

00:32:34.000                             : en:5

00:46:46.000                             : en:6

00:52:35.000                             : en:7

01:03:42.000                             : en:8

01:12:14.000                             : en:9


悠悠MP4_MP4电影下载_伊芙 Eve.2019.1080p.AMZN.WEBRip.DD5.1.x264-FGT 4.97GB悠悠MP4_MP4电影下载_伊芙 Eve.2019.1080p.AMZN.WEBRip.DD5.1.x264-FGT 4.97GB悠悠MP4_MP4电影下载_伊芙 Eve.2019.1080p.AMZN.WEBRip.DD5.1.x264-FGT 4.97GB

                                                                                           

提示:如迅雷下载提示"任务出错"、"因版权无法下载",请尝试【迅雷5】
上传的附件:
最新回复 (0)
返回
本站所有资源均收集自互联网,没有提供影片资源存储, 也未参与录制、上传,若本站收录的资源无意侵犯了您的权益, 请联系邮箱:gogoimgs#gmail.com(#=@)