[2017] [其他] [其他] [WEB-1080P] 可口的你/为爱“吃”狂 Delectable.You.2017.FRENCH.1080p.AMZN.WEBRip.DDP2.0.x264-TEPES 686.35MB

uump4 1月前 187

悠悠MP4_MP4电影下载_可口的你/为爱“吃”狂 Delectable.You.2017.FRENCH.1080p.AMZN.WEBRip.DDP2.0.x264-TEPES 686.35MB
悠悠MP4_MP4电影下载_可口的你/为爱“吃”狂 Delectable.You.2017.FRENCH.1080p.AMZN.WEBRip.DDP2.0.x264-TEPES 686.35MB

◎译  名 可口的你 / Delectable You / 为爱“吃”狂 / 吃吃的爱
◎片  名 Belle à croquer
◎年  代 2017
◎产  地 法国
◎类  别 短片
◎语  言 英语 / 法语
◎上映日期 2017-05-25(法国)
◎IMDb评分  6.6/10 from 187 users
◎IMDb链接  https://www.imdb.com/title/tt6920616
◎豆瓣评分 7.8/10 from 237 users
◎豆瓣链接 https://movie.douban.com/subject/27109779/
◎主  演 凯瑟琳·德纳芙 Catherine Deneuve


◎标  签 短片 | 法国 | 奇幻 | 法国电影 | 爱情 | 默片 | 柯首映 | 2017

◎简  介  

  Oscar Mongo?t, a gourmet cannibal, burns with love for a neighbor in his building, the very vegetal Miss Carrot. But this passion seems destined to fail: she is vegetarian, while he has a severe case of vegetable phobia. Things take a drastic turn the evening she invites him to dinner.

  谷歌为您翻译:
  美食家食人族奥斯卡·蒙戈(Oscar Mongo?t)对自己建筑物中的一个邻居,即植物丰富的卡洛小姐(Miss Carrot)充满了爱意。但是这种激情注定要失败:她是素食主义者,而他患有严重的蔬菜恐惧症。她邀请他去吃饭的那个晚上,事情发生了急剧变化。

  腾讯为您翻译:
  奥斯卡·蒙哥特,一个食人美食家,对他大楼里的一个邻居充满了爱,她就是非常素食的胡萝卜小姐。但这种热情似乎注定要失败:她是素食者,而他有严重的蔬菜恐惧症。她邀请他共进晚餐的那晚,事情发生了剧变。

  本站为您翻译:
  一个食人美食家奥斯卡 · 蒙戈特,爱上了他楼里的一位邻居,一位素食主义的胡萝卜小姐。但这种热情似乎注定要失败: 她是素食主义者,而他患有严重的蔬菜恐惧症。她邀请他共进晚餐的那个晚上,事情发生了急剧的转变。



Video

ID                                       : 1

Format                                   : AVC

Format/Info                              : Advanced Video Codec

Format profile                           : High@L4

Format settings                          : CABAC / 4 Ref Frames

Format settings, CABAC                   : Yes

Format settings, Reference frames        : 4 frames

Codec ID                                 : V_MPEG4/ISO/AVC

Duration                                 : 15 min 0 s

Bit rate mode                            : Constant

Bit rate                                 : 6 171 kb/s

Nominal bit rate                         : 10 000 kb/s

Width                                    : 1 440 pixels

Height                                   : 1 080 pixels

Display aspect ratio                     : 4:3

Frame rate mode                          : Constant

Frame rate                               : 24.000 FPS

Color space                              : YUV

Chroma subsampling                       : 4:2:0

Bit depth                                : 8 bits

Scan type                                : Progressive

Bits/(Pixel*Frame)                       : 0.165

Stream size                              : 662 MiB (96%)

Default                                  : Yes

Forced                                   : No

Color range                              : Limited

Color primaries                          : BT.709

Transfer characteristics                 : BT.709

Matrix coefficients                      : BT.709



Audio

ID                                       : 2

Format                                   : E-AC-3

Format/Info                              : Enhanced AC-3

Commercial name                          : Dolby Digital Plus

Codec ID                                 : A_EAC3

Duration                                 : 15 min 0 s

Bit rate mode                            : Constant

Bit rate                                 : 224 kb/s

Channel(s)                               : 2 channels

Channel layout                           : L R

Sampling rate                            : 48.0 kHz

Frame rate                               : 31.250 FPS (1536 SPF)

Compression mode                         : Lossy

Stream size                              : 24.0 MiB (4%)

Language                                 : French

Service kind                             : Complete Main

Default                                  : Yes

Forced                                   : No



Text

ID                                       : 3

Format                                   : UTF-8

Codec ID                                 : S_TEXT/UTF8

Codec ID/Info                            : UTF-8 Plain Text

Duration                                 : 14 min 42 s

Bit rate                                 : 8 b/s

Count of elements                        : 37

Stream size                              : 958 Bytes (0%)

Title                                    : SDH

Language                                 : English

Default                                  : No

Forced                                   : No


悠悠MP4_MP4电影下载_可口的你/为爱“吃”狂 Delectable.You.2017.FRENCH.1080p.AMZN.WEBRip.DDP2.0.x264-TEPES 686.35MB悠悠MP4_MP4电影下载_可口的你/为爱“吃”狂 Delectable.You.2017.FRENCH.1080p.AMZN.WEBRip.DDP2.0.x264-TEPES 686.35MB悠悠MP4_MP4电影下载_可口的你/为爱“吃”狂 Delectable.You.2017.FRENCH.1080p.AMZN.WEBRip.DDP2.0.x264-TEPES 686.35MB

                                                                                           

提示:如迅雷下载提示"任务出错"、"因版权无法下载",请尝试【迅雷5】
上传的附件:
最新回复 (0)
返回
本站所有资源均收集自互联网,没有提供影片资源存储, 也未参与录制、上传,若本站收录的资源无意侵犯了您的权益, 请联系邮箱:gogoimgs#gmail.com(#=@)