[2012] [其他] [动画] [BD-1080P] 使徒传说/鬼使徒 The.Apostle.2012.SPANISH.1080p.BluRay.x264-HANDJOB 7.11GB

uump4 1月前 206

悠悠MP4_MP4电影下载_使徒传说/鬼使徒 The.Apostle.2012.SPANISH.1080p.BluRay.x264-HANDJOB 7.11GB
悠悠MP4_MP4电影下载_使徒传说/鬼使徒 The.Apostle.2012.SPANISH.1080p.BluRay.x264-HANDJOB 7.11GB

◎译  名 使徒传说 / El apóstol / The Apostle / 鬼使徒
◎片  名 O Apóstolo
◎年  代 2012
◎产  地 西班牙
◎类  别 动画 / 悬疑
◎语  言 西班牙语
◎上映日期 2012-04-27(西班牙马拉加电影节)
◎IMDb评分  6.8/10 from 597 users
◎IMDb链接  https://www.imdb.com/title/tt1331294
◎豆瓣评分 6.7/10 from 48 users
◎豆瓣链接 https://movie.douban.com/subject/3317119/
◎片  长 80分钟
◎导  演 费尔南多·科蒂佐 Fernando Cortizo
◎编  剧 费尔南多·科蒂佐 Fernando Cortizo
◎主  演 卡洛斯·布兰科 Carlos Blanco
       路易斯·托萨尔 Luis Tosar
       保罗?纳什 Paul Naschy
       豪尔赫·桑斯 Jorge Sanz
       Celso Bugallo
       杰拉丁·卓别林 Geraldine Chaplin
       Manuel Manqui?a
       Xosé Manuel Olveira 'Pico'


◎标  签 西班牙 | 动画 | 粘土动画 | SIFF | 2010s | 2011 | 电影院 | 恐怖

◎简  介  

  片中的主人公是一名罪犯,当他来到一座古旧的小镇寻找传说中的宝藏时,并不知道自己是镇上的长老们觊觎的目标。西班牙低成本3D动画片,邀请到了《鬼妈妈》的动画团队以及著名配音大师菲利普·格拉斯参与制作,配音阵容亦十分强大。影片也是西班牙首部以成人为目标观众而拍的动画片,其风格令人想起蒂姆·波顿的《僵尸新娘》,有关乎西班牙加利西亚地区的风俗、传说以及历史。

◎获奖情况  

  第27届西班牙戈雅奖(2013)
  最佳动画片(提名) Isabel Rey


Video

ID                                       : 1

Format                                   : AVC

Format/Info                              : Advanced Video Codec

Format profile                           : High@L4.1

Format settings                          : CABAC / 4 Ref Frames

Format settings, CABAC                   : Yes

Format settings, Reference frames        : 4 frames

Codec ID                                 : V_MPEG4/ISO/AVC

Duration                                 : 1 h 24 min

Bit rate                                 : 11.4 Mb/s

Width                                    : 1 920 pixels

Height                                   : 1 028 pixels

Display aspect ratio                     : 1.85:1

Frame rate mode                          : Constant

Frame rate                               : 24.000 FPS

Color space                              : YUV

Chroma subsampling                       : 4:2:0

Bit depth                                : 8 bits

Scan type                                : Progressive

Bits/(Pixel*Frame)                       : 0.241

Stream size                              : 6.73 GiB (95%)

Writing library                          : x264 core 155 r2917 0a84d98

Encoding settings                        : cabac=1 / ref=4 / deblock=1:-3:-3 / analyse=0x3:0x133 / me=umh / subme=10 / psy=1 / psy_rd=1.00:0.00 / mixed_ref=1 / me_range=32 / chroma_me=1 / trellis=2 / 8x8dct=1 / cqm=0 / deadzone=21,11 / fast_pskip=0 / chroma_qp_offset=-2 / threads=32 / lookahead_threads=8 / sliced_threads=0 / nr=0 / decimate=0 / interlaced=0 / bluray_compat=0 / constrained_intra=0 / bframes=16 / b_pyramid=2 / b_adapt=2 / b_bias=0 / direct=3 / weightb=1 / open_gop=0 / weightp=1 / keyint=240 / keyint_min=24 / scenecut=40 / intra_refresh=0 / rc_lookahead=60 / rc=crf / mbtree=0 / crf=14.5 / qcomp=0.60 / qpmin=0 / qpmax=69 / qpstep=4 / vbv_maxrate=62500 / vbv_bufsize=78125 / crf_max=0.0 / nal_hrd=none / filler=0 / ip_ratio=1.40 / pb_ratio=1.30 / aq=1:0.70

Default                                  : Yes

Forced                                   : No

Color range                              : Limited

Color primaries                          : BT.709

Transfer characteristics                 : BT.709

Matrix coefficients                      : BT.709



Audio

ID                                       : 2

Format                                   : AC-3

Format/Info                              : Audio Coding 3

Commercial name                          : Dolby Digital

Codec ID                                 : A_AC3

Duration                                 : 1 h 24 min

Bit rate mode                            : Constant

Bit rate                                 : 640 kb/s

Channel(s)                               : 6 channels

Channel layout                           : L R C LFE Ls Rs

Sampling rate                            : 48.0 kHz

Frame rate                               : 31.250 FPS (1536 SPF)

Compression mode                         : Lossy

Stream size                              : 387 MiB (5%)

Language                                 : Spanish

Service kind                             : Complete Main

Default                                  : Yes

Forced                                   : No



Text #1

ID                                       : 3

Format                                   : UTF-8

Codec ID                                 : S_TEXT/UTF8

Codec ID/Info                            : UTF-8 Plain Text

Duration                                 : 1 h 16 min

Bit rate                                 : 41 b/s

Count of elements                        : 725

Stream size                              : 23.4 KiB (0%)

Language                                 : English

Default                                  : Yes

Forced                                   : No



Text #2

ID                                       : 4

Format                                   : UTF-8

Codec ID                                 : S_TEXT/UTF8

Codec ID/Info                            : UTF-8 Plain Text

Duration                                 : 1 h 16 min

Bit rate                                 : 37 b/s

Count of elements                        : 745

Stream size                              : 20.8 KiB (0%)

Language                                 : French

Default                                  : No

Forced                                   : No



Text #3

ID                                       : 5

Format                                   : UTF-8

Codec ID                                 : S_TEXT/UTF8

Codec ID/Info                            : UTF-8 Plain Text

Duration                                 : 1 h 16 min

Bit rate                                 : 58 b/s

Count of elements                        : 668

Stream size                              : 32.8 KiB (0%)

Language                                 : Russian

Default                                  : No

Forced                                   : No



Menu

00:00:00.000                             : :Chapter 1

00:00:00.417                             : :Chapter 2

00:14:35.000                             : :Chapter 3

00:28:45.167                             : :Chapter 4

00:41:35.542                             : :Chapter 5

00:53:13.083                             : :Chapter 6

01:09:51.458                             : :Chapter 7


悠悠MP4_MP4电影下载_使徒传说/鬼使徒 The.Apostle.2012.SPANISH.1080p.BluRay.x264-HANDJOB 7.11GB悠悠MP4_MP4电影下载_使徒传说/鬼使徒 The.Apostle.2012.SPANISH.1080p.BluRay.x264-HANDJOB 7.11GB悠悠MP4_MP4电影下载_使徒传说/鬼使徒 The.Apostle.2012.SPANISH.1080p.BluRay.x264-HANDJOB 7.11GB

                                                                                           

提示:如迅雷下载提示"任务出错"、"因版权无法下载",请尝试【迅雷5】
上传的附件:
最新回复 (0)
返回
本站所有资源均收集自互联网,没有提供影片资源存储, 也未参与录制、上传,若本站收录的资源无意侵犯了您的权益, 请联系邮箱:gogoimgs#gmail.com(#=@)