[2020] [欧美] [悬疑] [BD-1080P] 吓吓朱莉 Lets.Scare.Julie.2020.1080p.BluRay.x264.DTS-MT 11.02GB

uump4 1月前 111

悠悠MP4_MP4电影下载_吓吓朱莉 Lets.Scare.Julie.2020.1080p.BluRay.x264.DTS-MT 11.02GB
悠悠MP4_MP4电影下载_吓吓朱莉 Lets.Scare.Julie.2020.1080p.BluRay.x264.DTS-MT 11.02GB

◎译  名 吓吓朱莉 / Let's Scare Julie to Death
◎片  名 Let's Scare Julie
◎年  代 2020
◎产  地 美国
◎类  别 悬疑 / 惊悚 / 恐怖
◎语  言 英语
◎上映日期 2020-10-02(Digital)
◎IMDb链接  https://www.imdb.com/title/tt8547768
◎豆瓣评分 0/10 from 0 users
◎豆瓣链接 https://movie.douban.com/subject/35181011/
◎片  长 83分钟
◎主  演 伊莎贝尔·梅 Isabel May


◎简  介  

  A group of teen girls set out to scare their reclusive new neighbor, but the prank turns to terror when some of them don't come back.

  谷歌为您翻译:
  一群十几岁的女孩开始恐吓他们隐居的新邻居,但是当其中一些不回来时,恶作剧变成了恐怖。

  腾讯为您翻译:
  一群十几岁的女孩开始吓唬她们与世隔绝的新邻居,但当她们中的一些人没有回来时,恶作剧变成了恐怖。

  本站为您翻译:
  一群十几岁的女孩开始吓唬她们隐居的新邻居,但是当她们中的一些人没有回来时,这个恶作剧变成了恐怖。



Video

ID                                       : 1

Format                                   : AVC

Format/Info                              : Advanced Video Codec

Format profile                           : High@L4.1

Format settings                          : CABAC / 4 Ref Frames

Format settings, CABAC                   : Yes

Format settings, Reference frames        : 4 frames

Codec ID                                 : V_MPEG4/ISO/AVC

Duration                                 : 1 h 23 min

Bit rate                                 : 17.5 Mb/s

Width                                    : 1 920 pixels

Height                                   : 1 038 pixels

Display aspect ratio                     : 1.85:1

Frame rate mode                          : Constant

Frame rate                               : 23.976 (24000/1001/34539) FPS

Color space                              : YUV

Chroma subsampling                       : 4:2:0

Bit depth                                : 8 bits

Scan type                                : Progressive

Bits/(Pixel*Frame)                       : 0.366

Stream size                              : 10.1 GiB (92%)

Writing library                          : x264 core 157 r2938 2b00a84 TnP@MTeam Mod

Encoding settings                        : cabac=1 / ref=4 / deblock=1:-3:-3 / analyse=0x3:0x133 / me=umh / subme=10 / psy=1 / psy_rd=1.05:0.00 / mixed_ref=1 / me_range=32 / chroma_me=1 / trellis=2 / 8x8dct=1 / cqm=0 / deadzone=21,11 / fast_pskip=0 / chroma_qp_offset=-2 / threads=12 / lookahead_threads=2 / sliced_threads=0 / nr=0 / decimate=0 / interlaced=0 / bluray_compat=0 / constrained_intra=0 / bframes=8 / b_pyramid=2 / b_adapt=2 / b_bias=0 / direct=3 / weightb=1 / open_gop=0 / weightp=2 / keyint=250 / keyint_min=24 / scenecut=40 / intra_refresh=0 / rc_lookahead=250 / rc=crf / mbtree=0 / crf=16.8 / qcomp=0.60 / qpmin=0 / qpmax=69 / qpstep=4 / vbv_maxrate=62500 / vbv_bufsize=78125 / crf_max=0.0 / nal_hrd=none / filler=0 / ip_ratio=1.30 / pb_ratio=1.20 / aq=3:0.80

Language                                 : English

Default                                  : Yes

Forced                                   : No

Color range                              : Limited

Color primaries                          : BT.709

Matrix coefficients                      : BT.709



Audio

ID                                       : 2

Format                                   : DTS

Format/Info                              : Digital Theater Systems

Codec ID                                 : A_DTS

Duration                                 : 1 h 23 min

Bit rate mode                            : Constant

Bit rate                                 : 1 509 kb/s

Channel(s)                               : 6 channels

Channel layout                           : C L R Ls Rs LFE

Sampling rate                            : 48.0 kHz

Frame rate                               : 93.750 FPS (512 SPF)

Bit depth                                : 24 bits

Compression mode                         : Lossy

Stream size                              : 897 MiB (8%)

Language                                 : English

Default                                  : Yes

Forced                                   : No



Text

ID                                       : 3

Format                                   : UTF-8

Codec ID                                 : S_TEXT/UTF8

Codec ID/Info                            : UTF-8 Plain Text

Duration                                 : 1 h 16 min

Bit rate                                 : 71 b/s

Count of elements                        : 1410

Stream size                              : 40.0 KiB (0%)

Title                                    : SRT

Language                                 : English

Default                                  : Yes

Forced                                   : No



Menu

00:00:00.000                             : en:Chapter 01

00:05:55.605                             : en:Chapter 02

00:14:10.641                             : en:Chapter 03

00:19:34.590                             : en:Chapter 04

00:24:53.283                             : en:Chapter 05

00:32:29.447                             : en:Chapter 06

00:41:04.003                             : en:Chapter 07

00:48:27.363                             : en:Chapter 08

00:55:51.807                             : en:Chapter 09

01:02:51.476                             : en:Chapter 10

01:11:53.142                             : en:Chapter 11

01:18:36.879                             : en:Chapter 12


悠悠MP4_MP4电影下载_吓吓朱莉 Lets.Scare.Julie.2020.1080p.BluRay.x264.DTS-MT 11.02GB悠悠MP4_MP4电影下载_吓吓朱莉 Lets.Scare.Julie.2020.1080p.BluRay.x264.DTS-MT 11.02GB悠悠MP4_MP4电影下载_吓吓朱莉 Lets.Scare.Julie.2020.1080p.BluRay.x264.DTS-MT 11.02GB

                                                                                           

提示:如迅雷下载提示"任务出错"、"因版权无法下载",请尝试【迅雷5】
上传的附件:
最新回复 (0)
返回
本站所有资源均收集自互联网,没有提供影片资源存储, 也未参与录制、上传,若本站收录的资源无意侵犯了您的权益, 请联系邮箱:gogoimgs#gmail.com(#=@)