[2020] [其他] [剧情] [BD-1080P] 品行不端/爱美奖行动 Misbehaviour.2020.1080p.BluRay.x264.DTS-MT 11.13GB

uump4 1月前 104

悠悠MP4_MP4电影下载_品行不端/爱美奖行动 Misbehaviour.2020.1080p.BluRay.x264.DTS-MT 11.13GB
悠悠MP4_MP4电影下载_品行不端/爱美奖行动 Misbehaviour.2020.1080p.BluRay.x264.DTS-MT 11.13GB

◎译  名 品行不端 / 爱美奖行动(台) / 逆权选美(港)
◎片  名 Misbehaviour
◎年  代 2020
◎产  地 英国 / 法国
◎类  别 剧情 / 历史
◎语  言 英语
◎上映日期 2020-03-09(伦敦首映) / 2020-03-13(英国)
◎IMDb评分  6.1/10 from 2313 users
◎IMDb链接  https://www.imdb.com/title/tt9148706
◎豆瓣评分 6.9/10 from 1209 users
◎豆瓣链接 https://movie.douban.com/subject/30353579/
◎片  长 106分钟
◎导  演 菲莉帕·洛索普 Philippa Lowthorpe
◎编  剧 盖比·奇亚普 Gaby Chiappe
◎主  演 凯拉·奈特莉 Keira Knightley
       杰西·巴克利 Jessie Buckley
       古古·姆巴塔-劳 Gugu Mbatha-Raw
       莱丝利·曼维尔 Lesley Manville
       凯莉·霍威 Keeley Hawes
       瑞斯·伊凡斯 Rhys Ifans
       苏琪·沃特豪斯 Suki Waterhouse
       夏洛特·斯宾塞 Charlotte Spencer
       格雷戈·金尼尔 Greg Kinnear
       亚历克萨·戴维斯 Alexa Davies
       菲利斯·洛根 Phyllis Logan
       艾玛·科林 Emma Corrin
       莉莉·纽马克 Lily Newmark
       约翰·赫夫南 John Heffernan
       凯蒂·卡迈克尔 Katy Carmichael
       鲁比·本特尔 Ruby Bentall
       艾西斯·海恩斯沃斯 Isis Hainsworth
       莉莉·崔佛斯 Lily Travers
       波丽·坎普 Polly Kemp
       蕾娅·斯密特洛维兹 Ria Zmitrowicz
       克拉拉·罗萨杰 Clara Rosager
       爱琳·奥伊金斯 Eileen O'Higgins
       查理·安森 Charlie Anson
       斯蒂芬·鲍克思 Stephen Boxer
       塞缪尔·布伦金 Samuel Blenkin
       罗丽斯·哈里森 Loreece Harrison
       艾玛·达西 Emma D'Arcy
       卡加莎·莫翰玛 Kajsa Mohammar
       马汀·麦格 Martyn Mayger
       尼克拉斯·纳恩 Nicholas Nunn  
       丹尼尔·高斯林 Daniel Gosling
       乔纳森·罗德斯 Jonathan Rhodes
       Edward E. White
       尼克·欧文福特 Nick Owenford
       史蒂芬·萨姆森 Stephen Samson
       迪诺·布加迪 Deano Bugatti
       玛丽·希金斯 Mary Higgins


◎标  签 女性 | 英国 | 种族 | 英国电影 | 剧情 | 2020 | KeiraKnightly | 电影

◎简  介  

  讲述1970年世界小姐选美比赛是全球亿万观众瞩目的国际盛事,一个新组成的女权组织认为选美是贬低女性,因此极力反对,更于比赛期间在众目睽睽下冲上舞台,扰乱和阻碍比赛进行。虽然她们立即就被逐离场,而比赛亦继续进行,但更触动观众神经的一幕却随即上演:当晚夺冠的佳丽竟然不是大热的瑞典小姐,而是来自西印度群岛岛国格林纳达的Jennifer Hosten,以黑马之姿成为史上首位获胜的黑人女性。就在短短一小时内,全球观众亲眼目睹父权主义被公然挑战,西方审美观亦被全然颠覆,一场选美翻起千重浪,亦为女权运动打下漂亮的一仗。


Video

ID                                       : 1

Format                                   : AVC

Format/Info                              : Advanced Video Codec

Format profile                           : High@L4.1

Format settings                          : CABAC / 5 Ref Frames

Format settings, CABAC                   : Yes

Format settings, Reference frames        : 5 frames

Codec ID                                 : V_MPEG4/ISO/AVC

Duration                                 : 1 h 46 min

Bit rate                                 : 13.5 Mb/s

Width                                    : 1 920 pixels

Height                                   : 804 pixels

Display aspect ratio                     : 2.40:1

Frame rate mode                          : Constant

Frame rate                               : 24.000 FPS

Color space                              : YUV

Chroma subsampling                       : 4:2:0

Bit depth                                : 8 bits

Scan type                                : Progressive

Bits/(Pixel*Frame)                       : 0.364

Stream size                              : 10.0 GiB (90%)

Writing library                          : x264 core 157 r2938 2b00a84 TnP@MTeam Mod

Encoding settings                        : cabac=1 / ref=5 / deblock=1:-3:-3 / analyse=0x3:0x133 / me=umh / subme=10 / psy=1 / psy_rd=1.05:0.00 / mixed_ref=1 / me_range=32 / chroma_me=1 / trellis=2 / 8x8dct=1 / cqm=0 / deadzone=21,11 / fast_pskip=0 / chroma_qp_offset=-2 / threads=12 / lookahead_threads=2 / sliced_threads=0 / nr=0 / decimate=0 / interlaced=0 / bluray_compat=0 / constrained_intra=0 / bframes=8 / b_pyramid=2 / b_adapt=2 / b_bias=0 / direct=3 / weightb=1 / open_gop=0 / weightp=2 / keyint=250 / keyint_min=24 / scenecut=40 / intra_refresh=0 / rc_lookahead=250 / rc=crf / mbtree=0 / crf=16.8 / qcomp=0.60 / qpmin=0 / qpmax=69 / qpstep=4 / vbv_maxrate=62500 / vbv_bufsize=78125 / crf_max=0.0 / nal_hrd=none / filler=0 / ip_ratio=1.30 / pb_ratio=1.20 / aq=3:0.80

Language                                 : English

Default                                  : Yes

Forced                                   : No

Color range                              : Limited

Color primaries                          : BT.709

Matrix coefficients                      : BT.709



Audio

ID                                       : 2

Format                                   : DTS

Format/Info                              : Digital Theater Systems

Codec ID                                 : A_DTS

Duration                                 : 1 h 46 min

Bit rate mode                            : Constant

Bit rate                                 : 1 509 kb/s

Channel(s)                               : 6 channels

Channel layout                           : C L R Ls Rs LFE

Sampling rate                            : 48.0 kHz

Frame rate                               : 93.750 FPS (512 SPF)

Bit depth                                : 24 bits

Compression mode                         : Lossy

Stream size                              : 1.12 GiB (10%)

Language                                 : English

Default                                  : Yes

Forced                                   : No



Text

ID                                       : 3

Format                                   : UTF-8

Codec ID                                 : S_TEXT/UTF8

Codec ID/Info                            : UTF-8 Plain Text

Duration                                 : 1 h 39 min

Bit rate                                 : 65 b/s

Count of elements                        : 1457

Stream size                              : 48.0 KiB (0%)

Title                                    : SRT

Language                                 : English

Default                                  : Yes

Forced                                   : No



Menu

00:00:00.000                             : en:Chapter 01

00:07:35.708                             : en:Chapter 02

00:16:33.375                             : en:Chapter 03

00:24:28.542                             : en:Chapter 04

00:32:25.250                             : en:Chapter 05

00:41:29.042                             : en:Chapter 06

00:49:59.500                             : en:Chapter 07

00:59:43.167                             : en:Chapter 08

01:08:28.417                             : en:Chapter 09

01:15:19.583                             : en:Chapter 10

01:25:17.375                             : en:Chapter 11

01:34:20.833                             : en:Chapter 12


悠悠MP4_MP4电影下载_品行不端/爱美奖行动 Misbehaviour.2020.1080p.BluRay.x264.DTS-MT 11.13GB悠悠MP4_MP4电影下载_品行不端/爱美奖行动 Misbehaviour.2020.1080p.BluRay.x264.DTS-MT 11.13GB悠悠MP4_MP4电影下载_品行不端/爱美奖行动 Misbehaviour.2020.1080p.BluRay.x264.DTS-MT 11.13GB

                                                                                           

提示:如迅雷下载提示"任务出错"、"因版权无法下载",请尝试【迅雷5】
上传的附件:
最新回复 (0)
返回
本站所有资源均收集自互联网,没有提供影片资源存储, 也未参与录制、上传,若本站收录的资源无意侵犯了您的权益, 请联系邮箱:gogoimgs#gmail.com(#=@)