[2019] [欧美] [剧情] [BD-1080P] 狂躁节拍/地下狂热趴 Beats.2019.1080p.BluRay.x264-USURY 11.55GB

uump4 1月前 220

悠悠MP4_MP4电影下载_狂躁节拍/地下狂热趴 Beats.2019.1080p.BluRay.x264-USURY 11.55GB
悠悠MP4_MP4电影下载_狂躁节拍/地下狂热趴 Beats.2019.1080p.BluRay.x264-USURY 11.55GB

◎译  名 狂躁节拍 / 地下狂热趴(台) / 节拍
◎片  名 Beats
◎年  代 2019
◎产  地 英国
◎类  别 剧情 / 音乐
◎语  言 英语
◎上映日期 2019-01-24(鹿特丹电影节) / 2019-05-17(英国)
◎IMDb评分  7.2/10 from 2215 users
◎IMDb链接  https://www.imdb.com/title/tt7524414
◎豆瓣评分 7.4/10 from 1137 users
◎豆瓣链接 https://movie.douban.com/subject/27040109/
◎片  长 101分钟
◎导  演 布莱恩·威尔许 Brian Welsh
◎编  剧 基兰·赫利 Kieran Hurley / 布莱恩·威尔许 Brian Welsh
◎主  演 克里斯蒂安·奥尔特加 Cristian Ortega
       罗恩·麦克唐纳 Lorn Macdonald
       劳拉·弗雷泽 Laura Fraser
       罗斯·曼 Ross Mann
       艾米·曼森 Amy Manson
       蕾切尔·杰克逊 Rachel Jackson
       尼尔·雷珀 Neil Leiper
       布赖恩·弗格森 Brian Ferguson
       凯文·梅因斯 Kevin Mains
       斯特芬·马克尔 Stephen McCole
       乔什·怀特劳 Josh Whitelaw
       瑞恩·弗莱彻 Ryan Fletcher
       帕特里克·麦卡林登 Patrick McAlindon
       马丁·多纳吉 Martin Donaghy
       杰玛·麦克艾琳妮 Gemma McElhinney


◎标  签 英国 | 音乐 | 青春 | 2019 | 剧情 | 锐舞时代 | 狂躁节拍 | 人性

◎简  介  

  该片由布莱恩·威尔许(英剧《逃脱大师》)自编自导,故事背景设置在上世纪90年代中期苏格兰的一座小镇,时值“锐舞”文化席卷全英,两个个性迥异的好友度过了一个令他们终身难忘的“锐舞”派对。

◎获奖情况  

  第48届鹿特丹国际电影节(2019)
  观众奖(提名) 布莱恩·威尔许

  第22届英国独立电影奖(2019)
  最佳新演员(提名) 罗恩·麦克唐纳
  最佳新人编剧(提名) 基兰·赫利
  最佳摄影
  最佳音乐(提名)
  最佳音效


Video
ID                                       : 1
Format                                   : AVC
Format/Info                              : Advanced Video Codec
Format profile                           : High@L4.1
Format settings                          : CABAC / 4 Ref Frames
Format settings, CABAC                   : Yes
Format settings, Reference frames        : 4 frames
Codec ID                                 : V_MPEG4/ISO/AVC
Duration                                 : 1 h 41 min
Bit rate                                 : 14.2 Mb/s
Width                                    : 1 920 pixels
Height                                   : 1 080 pixels
Display aspect ratio                     : 16:9
Frame rate mode                          : Constant
Frame rate                               : 24.000 FPS
Color space                              : YUV
Chroma subsampling                       : 4:2:0
Bit depth                                : 8 bits
Scan type                                : Progressive
Bits/(Pixel*Frame)                       : 0.286
Stream size                              : 10.1 GiB (87%)
Writing library                          : x264 core 161 r3018 db0d417
Encoding settings                        : cabac=1 / ref=4 / deblock=1:-3:-3 / analyse=0x3:0x133 / me=umh / subme=10 / psy=1 / psy_rd=1.00:0.15 / mixed_ref=1 / me_range=24 / chroma_me=1 / trellis=2 / 8x8dct=1 / cqm=0 / deadzone=21,11 / fast_pskip=1 / chroma_qp_offset=-3 / threads=18 / lookahead_threads=3 / sliced_threads=0 / nr=0 / decimate=1 / interlaced=0 / bluray_compat=0 / constrained_intra=0 / bframes=8 / b_pyramid=2 / b_adapt=2 / b_bias=0 / direct=3 / weightb=1 / open_gop=0 / weightp=2 / keyint=250 / keyint_min=24 / scenecut=40 / intra_refresh=0 / rc_lookahead=60 / rc=crf / mbtree=1 / crf=20.0 / qcomp=0.60 / qpmin=0 / qpmax=69 / qpstep=4 / ip_ratio=1.40 / aq=3:0.50
Language                                 : English
Default                                  : Yes
Forced                                   : No

Audio
ID                                       : 2
Format                                   : DTS XLL
Format/Info                              : Digital Theater Systems
Commercial name                          : DTS-HD Master Audio
Codec ID                                 : A_DTS
Duration                                 : 1 h 41 min
Bit rate mode                            : Variable
Bit rate                                 : 2 071 kb/s
Channel(s)                               : 6 channels
Channel layout                           : C L R Ls Rs LFE
Sampling rate                            : 48.0 kHz
Frame rate                               : 93.750 FPS (512 SPF)
Bit depth                                : 16 bits
Compression mode                         : Lossless
Stream size                              : 1.47 GiB (13%)
Language                                 : English
Default                                  : Yes
Forced                                   : No

Text #1
ID                                       : 3
Format                                   : UTF-8
Codec ID                                 : S_TEXT/UTF8
Codec ID/Info                            : UTF-8 Plain Text
Duration                                 : 1 h 40 min
Bit rate                                 : 47 b/s
Count of elements                        : 1166
Stream size                              : 35.2 KiB (0%)
Title                                    : English
Language                                 : English
Default                                  : No
Forced                                   : No

Text #2
ID                                       : 4
Format                                   : UTF-8
Codec ID                                 : S_TEXT/UTF8
Codec ID/Info                            : UTF-8 Plain Text
Duration                                 : 1 h 40 min
Bit rate                                 : 50 b/s
Count of elements                        : 1215
Stream size                              : 36.8 KiB (0%)
Title                                    : English SDH
Language                                 : English
Default                                  : No
Forced                                   : No

Text #3
ID                                       : 5
Format                                   : PGS
Muxing mode                              : zlib
Codec ID                                 : S_HDMV/PGS
Codec ID/Info                            : Picture based subtitle format used on BDs/HD-DVDs
Duration                                 : 1 h 37 min
Bit rate                                 : 3 793 b/s
Count of elements                        : 1629
Stream size                              : 2.64 MiB (0%)
Title                                    : Swedish
Language                                 : Swedish
Default                                  : No
Forced                                   : No

Menu
00:00:00.000                             : en:00:00:00.000
00:10:58.500                             : en:00:10:58.500
00:21:41.000                             : en:00:21:41.000
00:29:48.000                             : en:00:29:48.000
00:43:00.500                             : en:00:43:00.500
00:51:22.000                             : en:00:51:22.000
01:02:09.000                             : en:01:02:09.000
01:09:42.000                             : en:01:09:42.000
01:21:06.500                             : en:01:21:06.500
01:26:55.000                             : en:01:26:55.000


悠悠MP4_MP4电影下载_狂躁节拍/地下狂热趴 Beats.2019.1080p.BluRay.x264-USURY 11.55GB

                                                                                           

提示:如迅雷下载提示"任务出错"、"因版权无法下载",请尝试【迅雷5】
上传的附件:
最新回复 (0)
返回
本站所有资源均收集自互联网,没有提供影片资源存储, 也未参与录制、上传,若本站收录的资源无意侵犯了您的权益, 请联系邮箱:gogoimgs#gmail.com(#=@)