[2018] [其他] [动作] [WEB-720P] 我有毒 I.Am.Toxic.2018.SPANISH.720p.AMZN.WEBRip.DDP5.1.x264-NTG 3.13GB

uump4 1月前 355

悠悠MP4_MP4电影下载_我有毒 I.Am.Toxic.2018.SPANISH.720p.AMZN.WEBRip.DDP5.1.x264-NTG 3.13GB
悠悠MP4_MP4电影下载_我有毒 I.Am.Toxic.2018.SPANISH.720p.AMZN.WEBRip.DDP5.1.x264-NTG 3.13GB

◎译  名 我有毒 / I Am Toxic
◎片  名 Soy tóxico
◎年  代 2018
◎产  地 阿根廷
◎类  别 动作 / 科幻 / 恐怖
◎IMDb评分  5.1/10 from 79 users
◎IMDb链接  https://www.imdb.com/title/tt9192492
◎豆瓣评分 0/10 from 0 users
◎豆瓣链接 https://movie.douban.com/subject/30441374/

◎标  签 阿根廷 | 科幻 | 2018

◎简  介  

  Following the success of their feature debut Jennifer’s Shadow (2004) – an exercise in American Gothic set in a scary land called Argentina – Pablo Parés and Daniel de la Vega worked for a US company on a post-mega-disaster wasteland zombie film in which South America had been turned into an all-purpose, all-materials junkyard, with the undead as the last humane entities around (forget about the humans here!).The project never materialised, but Diego Parés, Pablo’s brother, started to write and draw a comic series based on the screenplay – which so far remains a ruin, as only parts were finished and published. The ECish beauty and balls of Diego P.’s labour of love have now been congenially transformed by the directorial duo into a delightfully old-(1970s)school low-budget production, closer to Romero and Dante than Fulci and Lenzi. And the IFFR audience is in for the treat of treats: they get to see the film and can also enjoy the unfinished comic in an exhibition.

  谷歌为您翻译:
  继他们的长片首演获得成功之后,詹妮弗的《暗影(Shadow)》(2004年)–在一个名为阿根廷的可怕土地上的美国哥特式演习中–帕勃罗·帕罗斯(PabloParés)和丹尼尔·德拉维加(Daniel de la Vega)曾在一家美国公司任职。巨型灾难荒原的僵尸电影,其中南美已变成多用途,所有材料的垃圾场,而亡灵是周围最后的人道实体(忘了这里的人类!)。该项目从未实现,但迭戈·帕尔Pablo的兄弟(?)开始根据电影剧本(C)编写和绘制漫画系列,到目前为止,由于只有部分内容已完成并出版,因此仍然是一片废墟。导演二人组现已将迭戈·P·迭戈(Diego P.)的爱情之乐的美丽之物和球巧妙地转变为令人愉悦的老式(1970年代)低预算作品,比罗西·但丁(Fulci and Lenzi)更接近罗梅罗和但丁。 IFFR的观众可以享受美食:他们可以观看电影,还可以在展览中欣赏未完成的漫画。

  腾讯为您翻译:
  在他们的故事片处女作取得成功后,詹妮弗·帕尔(Jennifer??)的“影子”(2004年)?C在美国哥特式的背景下进行了一次演习,地点设在一片可怕的土地上,名为阿根廷?C,巴勃罗·帕尔·??和丹尼尔·德拉维加在一部巨灾后的荒原僵尸电影中为一家美国公司工作,在这部电影中,南美变成了一个万能的、全材料的僵尸垃圾场,不死人是周围最后的人道实体(忘了这里的人类吧!)。这个项目从未实现,但巴勃罗·帕尔·??的兄弟迭戈·帕尔·卡斯特斯(Diego Par??s)开始根据剧本“?C”创作和绘制一系列漫画,到目前为止,这部电影仍然是一片废墟、废墟和废墟。因为只有部分完成并出版了。迭戈·P·富尔奇(Diego P.??)热爱劳动的欧洲美貌和舞会现在已经被这两位导演二人组巧妙地转变为一部令人愉快的老式(20世纪70年代)低成本制作,比富尔奇和伦齐更接近罗梅罗和但丁。IFFR的观众正在享受款待:他们不仅可以看到这部电影,还可以在展览中欣赏到这部未完成的漫画。



Video

ID                                       : 1

Format                                   : AVC

Format/Info                              : Advanced Video Codec

Format profile                           : High@L3.1

Format settings                          : CABAC / 4 Ref Frames

Format settings, CABAC                   : Yes

Format settings, Reference frames        : 4 frames

Codec ID                                 : V_MPEG4/ISO/AVC

Duration                                 : 1 h 21 min

Bit rate mode                            : Constant

Bit rate                                 : 4 884 kb/s

Nominal bit rate                         : 6 000 kb/s

Width                                    : 1 280 pixels

Height                                   : 576 pixels

Display aspect ratio                     : 2.2:1

Frame rate mode                          : Constant

Frame rate                               : 23.976 (24000/1001/34539) FPS

Color space                              : YUV

Chroma subsampling                       : 4:2:0

Bit depth                                : 8 bits

Scan type                                : Progressive

Bits/(Pixel*Frame)                       : 0.276

Stream size                              : 2.76 GiB (88%)

Default                                  : Yes

Forced                                   : No

Color range                              : Limited

Color primaries                          : BT.709

Transfer characteristics                 : BT.709

Matrix coefficients                      : BT.709



Audio

ID                                       : 2

Format                                   : E-AC-3

Format/Info                              : Enhanced AC-3

Commercial name                          : Dolby Digital Plus

Codec ID                                 : A_EAC3

Duration                                 : 1 h 21 min

Bit rate mode                            : Constant

Bit rate                                 : 640 kb/s

Channel(s)                               : 6 channels

Channel layout                           : L R C LFE Ls Rs

Sampling rate                            : 48.0 kHz

Frame rate                               : 31.250 FPS (1536 SPF)

Compression mode                         : Lossy

Stream size                              : 371 MiB (12%)

Language                                 : Spanish

Service kind                             : Complete Main

Default                                  : Yes

Forced                                   : No



Text

ID                                       : 3

Format                                   : UTF-8

Codec ID                                 : S_TEXT/UTF8

Codec ID/Info                            : UTF-8 Plain Text

Duration                                 : 1 h 16 min

Bit rate                                 : 21 b/s

Count of elements                        : 555

Stream size                              : 11.9 KiB (0%)

Title                                    : SDH

Language                                 : English

Default                                  : No

Forced                                   : No


悠悠MP4_MP4电影下载_我有毒 I.Am.Toxic.2018.SPANISH.720p.AMZN.WEBRip.DDP5.1.x264-NTG 3.13GB悠悠MP4_MP4电影下载_我有毒 I.Am.Toxic.2018.SPANISH.720p.AMZN.WEBRip.DDP5.1.x264-NTG 3.13GB悠悠MP4_MP4电影下载_我有毒 I.Am.Toxic.2018.SPANISH.720p.AMZN.WEBRip.DDP5.1.x264-NTG 3.13GB

                                                                                           

提示:如迅雷下载提示"任务出错"、"因版权无法下载",请尝试【迅雷5】
上传的附件:
最新回复 (0)
返回
本站所有资源均收集自互联网,没有提供影片资源存储, 也未参与录制、上传,若本站收录的资源无意侵犯了您的权益, 请联系邮箱:gogoimgs#gmail.com(#=@)