[更早] [其他] [剧情] [BD-1080P] 三个露西亚/露茜亚 Lucia.1968.SPANISH.1080p.BluRay.x264-HANDJOB 12.99GB

uump4 1月前 353

悠悠MP4_MP4电影下载_三个露西亚/露茜亚 Lucia.1968.SPANISH.1080p.BluRay.x264-HANDJOB 12.99GB
悠悠MP4_MP4电影下载_三个露西亚/露茜亚 Lucia.1968.SPANISH.1080p.BluRay.x264-HANDJOB 12.99GB

◎译  名 三个露西亚 / Lucia / 露茜亚(港)
◎片  名 Lucía
◎年  代 1968
◎产  地 古巴
◎类  别 剧情
◎语  言 西班牙语
◎上映日期 1968-10(古巴)
◎IMDb评分  7.0/10 from 729 users
◎IMDb链接  https://www.imdb.com/title/tt0064609
◎豆瓣评分 7.7/10 from 158 users
◎豆瓣链接 https://movie.douban.com/subject/1401369/
◎片  长 160 分钟
◎导  演 温贝托·索洛斯 Humberto Solás
◎编  剧 胡里奥·加西亚·埃斯皮诺萨 Julio García Espinosa / 内尔松·罗德里格斯 Nelson Rodríguez / 温贝托·索洛斯 Humberto Solás
◎主  演 拉克尔·雷韦尔塔 Raquel Revuelta
       埃丝琳达·努涅斯 Eslinda Nú?ez
       阿德拉·莱格拉 Adela Legrá
       爱德华多·莫雷 Eduardo Moure
       拉蒙·布里托 Ramón Brito
       阿道福·廖拉多 Adolfo Llauradó
       Rogelio Blain
       内尔松·罗德里格斯 Nelson Rodríguez


◎标  签 古巴 | 古巴电影 | 1968 | 1960s | HumbertoSolás | 拉美 | 拉美电影 | 剧情

◎简  介  

  影片讲述了发生在古巴三个不同历史时期的三个独立故事,分别是在古巴独立战争时期、二十世纪三十年代格拉多·马查多统治时期,及二十世纪六十年代的古巴。故事的主角都叫露西亚,三个露西亚所处的社会阶层分别与殖民主义、新殖民主义和社会主义革命相对应。第一个故事背景设置在1895 年,当时古巴的民族主义者正在于西班牙殖民者抗争,露西亚是一个贵族,她爱上了一个自称无任何政治主张的陌生人,并与他私奔。结果这个男人只是想利用她找到民族主义者们的秘密基地,在逃跑时抛弃了她,最终露西亚杀死了这个负心汉。第二个露西亚是一个中产阶级家庭的女儿,她跟着一个年轻的革命者奥尔多,逃离了沉浸在凯纳斯特纸牌游戏世界的父母。最后一个露西亚是一个刚刚嫁给一个粗人的出色实地调查员。这三个历史时期前后跨越了整整七十年,影片以每个露西亚在不同时期的不同遭遇来表现古巴女性对社会现实的反思与寻求美好生活的努力,三个女主人公都生活在男权社会中,但她们所处的阶层和最终的命运却各不相同,通过她们的眼睛,能够感受到她们内心的彷徨挣扎与一个民族沉重的历史。


Video

ID                                       : 1

Format                                   : AVC

Format/Info                              : Advanced Video Codec

Format profile                           : High@L4.1

Format settings                          : CABAC / 4 Ref Frames

Format settings, CABAC                   : Yes

Format settings, Reference frames        : 4 frames

Codec ID                                 : V_MPEG4/ISO/AVC

Duration                                 : 2 h 41 min

Bit rate                                 : 11.2 Mb/s

Width                                    : 1 784 pixels

Height                                   : 1 080 pixels

Display aspect ratio                     : 5:3

Frame rate mode                          : Constant

Frame rate                               : 23.976 (24000/1001/34539) FPS

Color space                              : YUV

Chroma subsampling                       : 4:2:0

Bit depth                                : 8 bits

Scan type                                : Progressive

Bits/(Pixel*Frame)                       : 0.243

Stream size                              : 12.6 GiB (97%)

Writing library                          : x264 core 157 r2935 545de2f

Encoding settings                        : cabac=1 / ref=4 / deblock=1:-3:-3 / analyse=0x3:0x133 / me=umh / subme=10 / psy=1 / psy_rd=1.00:0.00 / mixed_ref=1 / me_range=32 / chroma_me=1 / trellis=2 / 8x8dct=1 / cqm=0 / deadzone=21,11 / fast_pskip=0 / chroma_qp_offset=-2 / threads=30 / lookahead_threads=5 / sliced_threads=0 / nr=0 / decimate=0 / interlaced=0 / bluray_compat=0 / constrained_intra=0 / bframes=8 / b_pyramid=2 / b_adapt=2 / b_bias=0 / direct=3 / weightb=1 / open_gop=0 / weightp=2 / keyint=240 / keyint_min=24 / scenecut=40 / intra_refresh=0 / rc_lookahead=60 / rc=crf / mbtree=0 / crf=20.2 / qcomp=0.60 / qpmin=0 / qpmax=69 / qpstep=4 / vbv_maxrate=62500 / vbv_bufsize=78125 / crf_max=0.0 / nal_hrd=none / filler=0 / ip_ratio=1.40 / pb_ratio=1.30 / aq=2:1.00

Default                                  : Yes

Forced                                   : No

Color range                              : Limited

Color primaries                          : BT.709

Transfer characteristics                 : BT.709

Matrix coefficients                      : BT.709



Audio

ID                                       : 2

Format                                   : FLAC

Format/Info                              : Free Lossless Audio Codec

Codec ID                                 : A_FLAC

Duration                                 : 2 h 41 min

Bit rate mode                            : Variable

Bit rate                                 : 306 kb/s

Channel(s)                               : 1 channel

Channel layout                           : C

Sampling rate                            : 48.0 kHz

Frame rate                               : 11.719 FPS (4096 SPF)

Bit depth                                : 16 bits

Compression mode                         : Lossless

Stream size                              : 354 MiB (3%)

Writing library                          : libFLAC 1.3.1 (UTC 2014-11-25)

Language                                 : Spanish

Default                                  : Yes

Forced                                   : No



Text

ID                                       : 3

Format                                   : UTF-8

Codec ID                                 : S_TEXT/UTF8

Codec ID/Info                            : UTF-8 Plain Text

Duration                                 : 2 h 34 min

Bit rate                                 : 35 b/s

Count of elements                        : 1360

Stream size                              : 40.5 KiB (0%)

Language                                 : English

Default                                  : Yes

Forced                                   : No



Menu

00:00:00.000                             : :Chapter 1

00:05:41.967                             : :Chapter 2

00:14:51.849                             : :Chapter 3

00:17:37.265                             : :Chapter 4

00:24:02.232                             : :Chapter 5

00:26:52.194                             : :Chapter 6

00:32:44.754                             : :Chapter 7

00:36:05.330                             : :Chapter 8

00:38:15.627                             : :Chapter 9

00:46:41.716                             : :Chapter 10

00:49:52.448                             : :Chapter 11

00:52:38.238                             : :Chapter 12

01:04:44.214                             : :Chapter 13

01:08:48.458                             : :Chapter 14

01:12:47.989                             : :Chapter 15

01:19:47.116                             : :Chapter 16

01:22:49.173                             : :Chapter 17

01:26:35.107                             : :Chapter 18

01:35:28.056                             : :Chapter 19

01:39:08.693                             : :Chapter 20

01:42:27.767                             : :Chapter 21

01:48:59.408                             : :Chapter 22

01:56:19.556                             : :Chapter 23

02:02:43.398                             : :Chapter 24

02:09:08.074                             : :Chapter 25

02:13:04.560                             : :Chapter 26

02:17:25.738                             : :Chapter 27

02:25:51.368                             : :Chapter 28

02:32:02.947                             : :Chapter 29


悠悠MP4_MP4电影下载_三个露西亚/露茜亚 Lucia.1968.SPANISH.1080p.BluRay.x264-HANDJOB 12.99GB悠悠MP4_MP4电影下载_三个露西亚/露茜亚 Lucia.1968.SPANISH.1080p.BluRay.x264-HANDJOB 12.99GB悠悠MP4_MP4电影下载_三个露西亚/露茜亚 Lucia.1968.SPANISH.1080p.BluRay.x264-HANDJOB 12.99GB

                                                                                           

提示:如迅雷下载提示"任务出错"、"因版权无法下载",请尝试【迅雷5】
上传的附件:
最新回复 (0)
返回
本站所有资源均收集自互联网,没有提供影片资源存储, 也未参与录制、上传,若本站收录的资源无意侵犯了您的权益, 请联系邮箱:gogoimgs#gmail.com(#=@)