[2019] [欧美] [悬疑] [BD-1080P] 神女 The.Goddess.2019.SUBBED.1080p.BluRay.x264-YAMG 763.54MB

uump4 8天前 371

悠悠MP4_MP4电影下载_神女 The.Goddess.2019.SUBBED.1080p.BluRay.x264-YAMG 763.54MB
悠悠MP4_MP4电影下载_神女 The.Goddess.2019.SUBBED.1080p.BluRay.x264-YAMG 763.54MB

◎译  名 神女
◎片  名 The Goddess
◎年  代 2019
◎产  地 美国
◎类  别 悬疑 / 惊悚 / 短片
◎语  言 汉语普通话
◎上映日期 2019-04-14(美国)
◎IMDb链接  https://www.imdb.com/title/tt9463432
◎豆瓣评分 0/10 from 0 users
◎豆瓣链接 https://movie.douban.com/subject/35055231/
◎片  长 7分钟
◎主  演 刘艺 Yi Liu


◎标  签 短片 | 美国 | 2010s | 2019 | 黑色 | 谭人恺 | 女性主角

◎简  介  

  The Goddess tells the story of a sexual assault survivor, who was attacked by her Uber driver, seeking her own justice through revenge.

  谷歌为您翻译:
  女神讲述了一个性侵犯幸存者的故事,该幸存者遭到优步司机的袭击,并通过报仇寻求自己的正义。

  腾讯为您翻译:
  《女神》讲述了一名性侵幸存者被她的优步司机袭击,通过复仇来寻求自己的正义的故事。

  本站为您翻译:
  《女神》讲述了一个性侵幸存者的故事,她被她的优步司机袭击,通过复仇来寻求自己的正义。



Video
ID                                       : 1
Format                                   : AVC
Format/Info                              : Advanced Video Codec
Format profile                           : High@L4.1
Format settings                          : CABAC / 4 Ref Frames
Format settings, CABAC                   : Yes
Format settings, Reference frames        : 4 frames
Codec ID                                 : V_MPEG4/ISO/AVC
Duration                                 : 6 min 39 s
Bit rate                                 : 14.8 Mb/s
Width                                    : 1 782 pixels
Height                                   : 1 080 pixels
Display aspect ratio                     : 5:3
Frame rate mode                          : Constant
Frame rate                               : 24.000 FPS
Color space                              : YUV
Chroma subsampling                       : 4:2:0
Bit depth                                : 8 bits
Scan type                                : Progressive
Bits/(Pixel*Frame)                       : 0.320
Stream size                              : 704 MiB (92%)
Writing library                          : x264 core 161 r3018 db0d417
Encoding settings                        : cabac=1 / ref=4 / deblock=1:-3:-3 / analyse=0x3:0x133 / me=umh / subme=10 / psy=1 / psy_rd=1.00:0.15 / mixed_ref=1 / me_range=24 / chroma_me=1 / trellis=2 / 8x8dct=1 / cqm=0 / deadzone=21,11 / fast_pskip=1 / chroma_qp_offset=-3 / threads=18 / lookahead_threads=3 / sliced_threads=0 / nr=0 / decimate=1 / interlaced=0 / bluray_compat=0 / constrained_intra=0 / bframes=8 / b_pyramid=2 / b_adapt=2 / b_bias=0 / direct=3 / weightb=1 / open_gop=0 / weightp=2 / keyint=250 / keyint_min=24 / scenecut=40 / intra_refresh=0 / rc_lookahead=60 / rc=crf / mbtree=1 / crf=17.0 / qcomp=0.60 / qpmin=0 / qpmax=69 / qpstep=4 / ip_ratio=1.40 / aq=3:0.70
Language                                 : English
Default                                  : Yes
Forced                                   : No
Color range                              : Limited
Matrix coefficients                      : BT.709

Audio
ID                                       : 2
Format                                   : FLAC
Format/Info                              : Free Lossless Audio Codec
Codec ID                                 : A_FLAC
Duration                                 : 6 min 39 s
Bit rate mode                            : Variable
Bit rate                                 : 1 243 kb/s
Channel(s)                               : 2 channels
Channel layout                           : L R
Sampling rate                            : 48.0 kHz
Frame rate                               : 11.720 FPS (4096 SPF)
Bit depth                                : 24 bits
Compression mode                         : Lossless
Stream size                              : 59.2 MiB (8%)
Writing library                          : libFLAC 1.2.1 (UTC 2007-09-17)
Language                                 : Chinese
Default                                  : Yes
Forced                                   : No


悠悠MP4_MP4电影下载_神女 The.Goddess.2019.SUBBED.1080p.BluRay.x264-YAMG 763.54MB

                                                                                           

提示:如迅雷下载提示"任务出错"、"因版权无法下载",请尝试【迅雷5】
上传的附件:
最新回复 (0)
返回
本站所有资源均收集自互联网,没有提供影片资源存储, 也未参与录制、上传,若本站收录的资源无意侵犯了您的权益, 请联系邮箱:gogoimgs#gmail.com(#=@)