[2019] [欧美] [惊悚] [WEB-1080P] 克莱的救赎 Clays.Redemption.2020.1080p.WEBRip.x264-RARBG 1.47GB

uump4 8天前 173

悠悠MP4_MP4电影下载_克莱的救赎 Clays.Redemption.2020.1080p.WEBRip.x264-RARBG 1.47GB
悠悠MP4_MP4电影下载_克莱的救赎 Clays.Redemption.2020.1080p.WEBRip.x264-RARBG 1.47GB

◎译  名 克莱的救赎
◎片  名 Clay's Redemption
◎年  代 2019
◎产  地 英国
◎类  别 惊悚
◎语  言 英语
◎IMDb链接  https://www.imdb.com/title/tt8894442
◎豆瓣评分 0/10 from 0 users
◎豆瓣链接 https://movie.douban.com/subject/33435091/
◎片  长 90分钟
◎主  演 丹尼尔·斯蒂森 Daniel Stisen
       加里·巴克斯特 Gary Baxter


◎简  介  

  Learza, an unstoppable demon in human form, kills people with a peculiar birth mark on their hands. One of them is Maya, a deaf/mute girl that Clay is assigned to protect.

  谷歌为您翻译:
  莱尔扎(Learza)是人类不可阻挡的恶魔,它杀死了手上有特殊胎记的人。其中一位是玛雅(Maya),这是一个聋哑人,克莱被指派保护。

  腾讯为您翻译:
  勒尔扎是一个不可阻挡的人形恶魔,他用手上的特殊胎记杀人。其中之一是玛雅,一个聋哑女孩,克莱被指派保护她。

  本站为您翻译:
  莱尔扎,一个无法阻止的人形恶魔,用手上的一个特殊的胎记杀死人类。其中之一是玛雅,一个聋哑女孩,克莱被指派去保护她。



Video

ID                                       : 1

Format                                   : AVC

Format/Info                              : Advanced Video Codec

Format profile                           : High@L4.1

Format settings                          : CABAC / 4 Ref Frames

Format settings, CABAC                   : Yes

Format settings, Reference frames        : 4 frames

Codec ID                                 : avc1

Codec ID/Info                            : Advanced Video Coding

Duration                                 : 1 h 17 min

Bit rate                                 : 2 500 kb/s

Width                                    : 1 920 pixels

Height                                   : 1 080 pixels

Display aspect ratio                     : 16:9

Frame rate mode                          : Constant

Frame rate                               : 25.000 FPS

Color space                              : YUV

Chroma subsampling                       : 4:2:0

Bit depth                                : 8 bits

Scan type                                : Progressive

Bits/(Pixel*Frame)                       : 0.048

Stream size                              : 1.34 GiB (92%)

Writing library                          : x264 core 152 r2851M ba24899

Encoding settings                        : cabac=1 / ref=4 / deblock=1:-1:-1 / analyse=0x3:0x113 / me=umh / subme=9 / psy=1 / psy_rd=1.00:0.15 / mixed_ref=1 / me_range=24 / chroma_me=1 / trellis=2 / 8x8dct=1 / cqm=0 / deadzone=21,11 / fast_pskip=1 / chroma_qp_offset=-3 / threads=16 / lookahead_threads=4 / sliced_threads=0 / nr=0 / decimate=1 / interlaced=0 / bluray_compat=0 / constrained_intra=0 / bframes=3 / b_pyramid=2 / b_adapt=2 / b_bias=0 / direct=3 / weightb=1 / open_gop=0 / weightp=2 / keyint=250 / keyint_min=25 / scenecut=40 / intra_refresh=0 / rc_lookahead=50 / rc=2pass / mbtree=1 / bitrate=2500 / ratetol=1.0 / qcomp=0.60 / qpmin=0 / qpmax=69 / qpstep=4 / cplxblur=20.0 / qblur=0.5 / vbv_maxrate=31250 / vbv_bufsize=31250 / nal_hrd=none / filler=0 / ip_ratio=1.40 / aq=3:1.00

Encoded date                             : UTC 2020-10-18 09:01:21

Tagged date                              : UTC 2020-10-18 09:01:21

Codec configuration box                  : avcC



Audio

ID                                       : 2

Format                                   : AAC LC

Format/Info                              : Advanced Audio Codec Low Complexity

Codec ID                                 : mp4a-40-2

Duration                                 : 1 h 17 min

Bit rate mode                            : Constant

Bit rate                                 : 224 kb/s

Channel(s)                               : 2 channels

Channel layout                           : L R

Sampling rate                            : 48.0 kHz

Frame rate                               : 46.875 FPS (1024 SPF)

Compression mode                         : Lossy

Stream size                              : 123 MiB (8%)

Language                                 : English

Default                                  : Yes

Alternate group                          : 1

Encoded date                             : UTC 2020-10-18 09:01:21

Tagged date                              : UTC 2020-10-18 09:01:21


悠悠MP4_MP4电影下载_克莱的救赎 Clays.Redemption.2020.1080p.WEBRip.x264-RARBG 1.47GB悠悠MP4_MP4电影下载_克莱的救赎 Clays.Redemption.2020.1080p.WEBRip.x264-RARBG 1.47GB悠悠MP4_MP4电影下载_克莱的救赎 Clays.Redemption.2020.1080p.WEBRip.x264-RARBG 1.47GB

                                                                                           

提示:如迅雷下载提示"任务出错"、"因版权无法下载",请尝试【迅雷5】
上传的附件:
最新回复 (0)
返回
本站所有资源均收集自互联网,没有提供影片资源存储, 也未参与录制、上传,若本站收录的资源无意侵犯了您的权益, 请联系邮箱:gogoimgs#gmail.com(#=@)