[2019] [欧美] [惊悚] [WEB-1080P] 克莱的救赎 Clays.Redemption.2020.1080p.AMZN.WEBRip.DDP2.0.x264-NTG 5.18GB

uump4 8天前 77

悠悠MP4_MP4电影下载_克莱的救赎 Clays.Redemption.2020.1080p.AMZN.WEBRip.DDP2.0.x264-NTG 5.18GB
悠悠MP4_MP4电影下载_克莱的救赎 Clays.Redemption.2020.1080p.AMZN.WEBRip.DDP2.0.x264-NTG 5.18GB

◎译  名 克莱的救赎
◎片  名 Clay's Redemption
◎年  代 2019
◎产  地 英国
◎类  别 惊悚
◎语  言 英语
◎IMDb链接  https://www.imdb.com/title/tt8894442
◎豆瓣评分 0/10 from 0 users
◎豆瓣链接 https://movie.douban.com/subject/33435091/
◎片  长 90分钟
◎主  演 丹尼尔·斯蒂森 Daniel Stisen
       加里·巴克斯特 Gary Baxter


◎简  介  

  Learza, an unstoppable demon in human form, kills people with a peculiar birth mark on their hands. One of them is Maya, a deaf/mute girl that Clay is assigned to protect.

  谷歌为您翻译:
  莱尔扎(Learza)是人类不可阻挡的恶魔,它杀死了手上有特殊胎记的人。其中一位是玛雅(Maya),这是一个聋哑人,克莱被指派保护。

  腾讯为您翻译:
  勒尔扎是一个不可阻挡的人形恶魔,他用手上的特殊胎记杀人。其中之一是玛雅,一个聋哑女孩,克莱被指派保护她。

  本站为您翻译:
  莱尔扎,一个无法阻止的人形恶魔,用手上的一个特殊的胎记杀死人类。其中之一是玛雅,一个聋哑女孩,克莱被指派去保护她。



Video

ID                                       : 1

Format                                   : AVC

Format/Info                              : Advanced Video Codec

Format profile                           : High@L4

Format settings                          : CABAC / 4 Ref Frames

Format settings, CABAC                   : Yes

Format settings, Reference frames        : 4 frames

Codec ID                                 : V_MPEG4/ISO/AVC

Duration                                 : 1 h 17 min

Bit rate mode                            : Constant

Bit rate                                 : 9 399 kb/s

Nominal bit rate                         : 10 000 kb/s

Width                                    : 1 920 pixels

Height                                   : 1 080 pixels

Display aspect ratio                     : 16:9

Frame rate mode                          : Constant

Frame rate                               : 25.000 FPS

Color space                              : YUV

Chroma subsampling                       : 4:2:0

Bit depth                                : 8 bits

Scan type                                : Progressive

Bits/(Pixel*Frame)                       : 0.181

Stream size                              : 5.06 GiB (98%)

Default                                  : Yes

Forced                                   : No

Color range                              : Limited

Color primaries                          : BT.709

Transfer characteristics                 : BT.709

Matrix coefficients                      : BT.709



Audio

ID                                       : 2

Format                                   : E-AC-3

Format/Info                              : Enhanced AC-3

Commercial name                          : Dolby Digital Plus

Codec ID                                 : A_EAC3

Duration                                 : 1 h 17 min

Bit rate mode                            : Constant

Bit rate                                 : 224 kb/s

Channel(s)                               : 2 channels

Channel layout                           : L R

Sampling rate                            : 48.0 kHz

Frame rate                               : 31.250 FPS (1536 SPF)

Compression mode                         : Lossy

Stream size                              : 123 MiB (2%)

Language                                 : English

Service kind                             : Complete Main

Default                                  : Yes

Forced                                   : No



Text

ID                                       : 3

Format                                   : UTF-8

Codec ID                                 : S_TEXT/UTF8

Codec ID/Info                            : UTF-8 Plain Text

Duration                                 : 1 h 14 min

Bit rate                                 : 26 b/s

Count of elements                        : 626

Stream size                              : 14.5 KiB (0%)

Title                                    : SDH

Language                                 : English

Default                                  : No

Forced                                   : No


悠悠MP4_MP4电影下载_克莱的救赎 Clays.Redemption.2020.1080p.AMZN.WEBRip.DDP2.0.x264-NTG 5.18GB悠悠MP4_MP4电影下载_克莱的救赎 Clays.Redemption.2020.1080p.AMZN.WEBRip.DDP2.0.x264-NTG 5.18GB悠悠MP4_MP4电影下载_克莱的救赎 Clays.Redemption.2020.1080p.AMZN.WEBRip.DDP2.0.x264-NTG 5.18GB

                                                                                           

提示:如迅雷下载提示"任务出错"、"因版权无法下载",请尝试【迅雷5】
上传的附件:
最新回复 (0)
返回
本站所有资源均收集自互联网,没有提供影片资源存储, 也未参与录制、上传,若本站收录的资源无意侵犯了您的权益, 请联系邮箱:gogoimgs#gmail.com(#=@)