[更早] [其他] [剧情] [BD-1080P] 邪灵/维 Viy.1967.1080p.BluRay.x264-CiNEPHiLiA 10.78GB

uump4 12天前 137

悠悠MP4_MP4电影下载_邪灵/维 Viy.1967.1080p.BluRay.x264-CiNEPHiLiA 10.78GB
悠悠MP4_MP4电影下载_邪灵/维 Viy.1967.1080p.BluRay.x264-CiNEPHiLiA 10.78GB

◎译  名 邪灵 / Spirit of Evil / Viy / 维 / 魔鬼的精神
◎片  名 Вий
◎年  代 1967
◎产  地 苏联
◎类  别 剧情 / 喜剧 / 恐怖 / 奇幻
◎语  言 俄语
◎上映日期 1967-11-27
◎IMDb评分  7.4/10 from 5545 users
◎IMDb链接  https://www.imdb.com/title/tt0062453
◎豆瓣评分 7.1/10 from 546 users
◎豆瓣链接 https://movie.douban.com/subject/1927876/
◎片  长 77 分钟
◎导  演 Konstantin Yershov / Georgi Kropachyov
◎编  剧 Konstantin Yershov / 果戈理 Nikolai Gogol
◎主  演 列昂尼得·库拉夫廖夫 Leonid Kuravlyov
       娜塔莉亚·瓦尔列依 Natalya Varley
       Aleksei Glazyrin
       Nikolai Kutuzov
       Vadim Zakharchenko
       Pyotr Vesklyarov
       Vladimir Salnikov
       Dmitri Kapka
       Stepan Shkurat
       Georgiy Sochevko
       Nikolai Yakovchenko
       Nikolay Panasev


◎标  签 苏联 | 恐怖 | 奇幻 | 苏联电影 | 俄罗斯 | 苏俄 | 1970s | 1967

◎简  介  

  The movie follows the original tale in a somewhat loose fashion, but manages to retain the majority of the images and action.
  A seminary student must survive three nights in prayer guarding the deceased witch maiden while she, along with an army of hellish demons, try to lure him out of his Holy Ring of Chalk.

  腾讯为您翻译:
  这部电影以一种有点松散的方式遵循了原始故事,但设法保留了大部分图像和动作。
一名神学院学生必须在三个晚上的祈祷中幸存下来,守护着已故的女巫少女,而她和一群地狱恶魔试图引诱他离开他的粉笔圣环。



Video
ID                                       : 1
Format                                   : AVC
Format/Info                              : Advanced Video Codec
Format profile                           : High@L4.1
Format settings                          : CABAC / 5 Ref Frames
Format settings, CABAC                   : Yes
Format settings, Reference frames        : 5 frames
Codec ID                                 : V_MPEG4/ISO/AVC
Duration                                 : 1 h 16 min
Bit rate                                 : 19.5 Mb/s
Width                                    : 1 480 pixels
Height                                   : 1 080 pixels
Display aspect ratio                     : 1.370
Frame rate mode                          : Constant
Frame rate                               : 23.976 (24000/1001/34539) FPS
Color space                              : YUV
Chroma subsampling                       : 4:2:0
Bit depth                                : 8 bits
Scan type                                : Progressive
Bits/(Pixel*Frame)                       : 0.509
Stream size                              : 10.4 GiB (97%)
Writing library                          : x264 core 161 r3018 db0d417
Encoding settings                        : cabac=1 / ref=5 / deblock=1:-3:-3 / analyse=0x3:0x133 / me=umh / subme=9 / psy=1 / psy_rd=1.00:0.00 / mixed_ref=1 / me_range=24 / chroma_me=1 / trellis=2 / 8x8dct=1 / cqm=0 / deadzone=21,11 / fast_pskip=0 / chroma_qp_offset=-2 / threads=9 / lookahead_threads=1 / sliced_threads=0 / nr=0 / decimate=0 / interlaced=0 / bluray_compat=0 / constrained_intra=0 / bframes=5 / b_pyramid=2 / b_adapt=2 / b_bias=0 / direct=3 / weightb=1 / open_gop=0 / weightp=2 / keyint=240 / keyint_min=23 / scenecut=40 / intra_refresh=0 / rc_lookahead=60 / rc=crf / mbtree=0 / crf=15.2 / qcomp=0.60 / qpmin=0 / qpmax=69 / qpstep=4 / vbv_maxrate=62500 / vbv_bufsize=78125 / crf_max=0.0 / nal_hrd=none / filler=0 / ip_ratio=1.40 / pb_ratio=1.30 / aq=3:0.65
Default                                  : Yes
Forced                                   : No

Audio
ID                                       : 2
Format                                   : FLAC
Format/Info                              : Free Lossless Audio Codec
Codec ID                                 : A_FLAC
Duration                                 : 1 h 16 min
Bit rate mode                            : Variable
Bit rate                                 : 659 kb/s
Channel(s)                               : 1 channel
Channel layout                           : C
Sampling rate                            : 48.0 kHz
Frame rate                               : 11.719 FPS (4096 SPF)
Bit depth                                : 24 bits
Compression mode                         : Lossless
Stream size                              : 361 MiB (3%)
Writing library                          : libFLAC 1.2.1 (UTC 2007-09-17)
Language                                 : Russian
Default                                  : Yes
Forced                                   : No

Text #1
ID                                       : 3
Format                                   : PGS
Muxing mode                              : zlib
Codec ID                                 : S_HDMV/PGS
Codec ID/Info                            : Picture based subtitle format used on BDs/HD-DVDs
Duration                                 : 1 h 15 min
Bit rate                                 : 13.8 kb/s
Count of elements                        : 929
Stream size                              : 7.44 MiB (0%)
Language                                 : English
Default                                  : No
Forced                                   : No

Text #2
ID                                       : 4
Format                                   : UTF-8
Codec ID                                 : S_TEXT/UTF8
Codec ID/Info                            : UTF-8 Plain Text
Duration                                 : 1 h 15 min
Bit rate                                 : 30 b/s
Count of elements                        : 464
Stream size                              : 16.8 KiB (0%)
Language                                 : English
Default                                  : Yes
Forced                                   : Yes

Menu
00:00:00.000                             : :Chapter 01
00:02:18.805                             : :Chapter 02
00:15:30.930                             : :Chapter 03
00:27:06.166                             : :Chapter 04
00:39:09.931                             : :Chapter 05
00:54:27.765                             : :Chapter 06
01:05:55.702                             : :Chapter 07
01:15:20.599                             : :Chapter 08


悠悠MP4_MP4电影下载_邪灵/维 Viy.1967.1080p.BluRay.x264-CiNEPHiLiA 10.78GB

                                                                                           

提示:如迅雷下载提示"任务出错"、"因版权无法下载",请尝试【迅雷5】
上传的附件:
最新回复 (0)
返回
本站所有资源均收集自互联网,没有提供影片资源存储, 也未参与录制、上传,若本站收录的资源无意侵犯了您的权益, 请联系邮箱:gogoimgs#gmail.com(#=@)