[2018] [其他] [科幻] [BD-1080P] 克莱拉/爱在星空下 Clara.2018.1080p.BluRay.x264.DTS-FGT 9.55GB

uump4 10天前 126

悠悠MP4_MP4电影下载_克莱拉/爱在星空下 Clara.2018.1080p.BluRay.x264.DTS-FGT 9.55GB
悠悠MP4_MP4电影下载_克莱拉/爱在星空下 Clara.2018.1080p.BluRay.x264.DTS-FGT 9.55GB

◎译  名 克莱拉 / 爱在星空下
◎片  名 Clara
◎年  代 2018
◎产  地 加拿大
◎类  别 科幻
◎语  言 英语
◎上映日期 2018-09-10(多伦多电影节)
◎IMDb评分  6.7/10 from 2999 users
◎IMDb链接  https://www.imdb.com/title/tt6613878
◎豆瓣评分 6.7/10 from 374 users
◎豆瓣链接 https://movie.douban.com/subject/30155101/
◎片  长 105分钟
◎主  演 帕特里克·J·亚当斯 Patrick J. Adams
       特罗伊安·艾夫瑞·贝利萨里奥 Troian Avery Bellisario
       克里斯汀·哈格 Kristen Hager
       恩尼斯·埃斯莫 Ennis Esmer
       詹妮弗·戴尔 Jennifer Dale
       罗伯特·H·托马斯 R.H. Thomson
       威尔·宝 Will Bowes


◎标  签 科幻 | 爱情 | 宇宙 | 加拿大 | 剧情 | 2018 | 文艺 | 电影

◎简  介  

  本片讲述天文学家伊萨克深信宇宙是个寂静黑暗之地,除了外太空之外,对生活中其他事物缺乏热情。直到伊萨克遇到了艺术家克莱拉,克莱拉点燃了他的激情,他才发现人与人之间的探索也很迷人...

◎获奖情况  

  第18届温哥华影评人协会奖(2018)
  加拿大电影最佳女主角(提名) 特罗伊安·艾夫瑞·贝利萨里奥


Video

ID                                       : 1

Format                                   : AVC

Format/Info                              : Advanced Video Codec

Format profile                           : High@L4.1

Format settings                          : CABAC / 4 Ref Frames

Format settings, CABAC                   : Yes

Format settings, Reference frames        : 4 frames

Codec ID                                 : V_MPEG4/ISO/AVC

Duration                                 : 1 h 45 min

Bit rate                                 : 11.5 Mb/s

Width                                    : 1 920 pixels

Height                                   : 804 pixels

Display aspect ratio                     : 2.40:1

Frame rate mode                          : Constant

Frame rate                               : 23.976 (24000/1001/34539) FPS

Color space                              : YUV

Chroma subsampling                       : 4:2:0

Bit depth                                : 8 bits

Scan type                                : Progressive

Bits/(Pixel*Frame)                       : 0.311

Stream size                              : 8.44 GiB (88%)

Title                                    : Clara.2018.1080p.BluRay.x264.DTS-FGT

Writing library                          : x264 core 148 r2795M aaa9aa8

Encoding settings                        : cabac=1 / ref=4 / deblock=1:-2:-2 / analyse=0x3:0x113 / me=umh / subme=9 / psy=1 / psy_rd=1.00:0.15 / mixed_ref=1 / me_range=16 / chroma_me=1 / trellis=2 / 8x8dct=1 / cqm=0 / deadzone=21,11 / fast_pskip=1 / chroma_qp_offset=-3 / threads=72 / lookahead_threads=3 / sliced_threads=0 / nr=0 / decimate=1 / interlaced=0 / bluray_compat=0 / constrained_intra=0 / bframes=3 / b_pyramid=2 / b_adapt=1 / b_bias=0 / direct=3 / weightb=1 / open_gop=0 / weightp=2 / keyint=250 / keyint_min=25 / scenecut=40 / intra_refresh=0 / rc_lookahead=50 / rc=2pass / mbtree=1 / bitrate=11500 / ratetol=1.0 / qcomp=0.60 / qpmin=0 / qpmax=69 / qpstep=4 / cplxblur=20.0 / qblur=0.5 / vbv_maxrate=31250 / vbv_bufsize=31250 / nal_hrd=none / filler=0 / ip_ratio=1.40 / aq=1:1.00

Language                                 : English

Default                                  : Yes

Forced                                   : No



Audio

ID                                       : 2

ID in the original source medium         : 4353 (0x1101)

Format                                   : DTS

Format/Info                              : Digital Theater Systems

Codec ID                                 : A_DTS

Duration                                 : 1 h 45 min

Bit rate mode                            : Constant

Bit rate                                 : 1 509 kb/s

Channel(s)                               : 6 channels

Channel layout                           : C L R Ls Rs LFE

Sampling rate                            : 48.0 kHz

Frame rate                               : 93.750 FPS (512 SPF)

Bit depth                                : 24 bits

Compression mode                         : Lossy

Stream size                              : 1.11 GiB (12%)

Title                                    : Clara.2018.1080p.BluRay.x264.DTS-FGT

Language                                 : English

Default                                  : No

Forced                                   : No

Original source medium                   : Blu-ray



Text

ID                                       : 3

Format                                   : UTF-8

Codec ID                                 : S_TEXT/UTF8

Codec ID/Info                            : UTF-8 Plain Text

Duration                                 : 1 h 39 min

Bit rate                                 : 66 b/s

Count of elements                        : 1518

Stream size                              : 48.2 KiB (0%)

Language                                 : English

Default                                  : Yes

Forced                                   : No



Menu

00:00:00.000                             : de:Chapter 01

00:11:30.356                             : de:Chapter 02

00:23:28.156                             : de:Chapter 03

00:37:27.870                             : de:Chapter 04

00:49:12.866                             : de:Chapter 05

01:01:55.670                             : de:Chapter 06

01:15:48.544                             : de:Chapter 07

01:31:07.128                             : de:Chapter 08

01:40:42.202                             : de:Chapter 09


悠悠MP4_MP4电影下载_克莱拉/爱在星空下 Clara.2018.1080p.BluRay.x264.DTS-FGT 9.55GB悠悠MP4_MP4电影下载_克莱拉/爱在星空下 Clara.2018.1080p.BluRay.x264.DTS-FGT 9.55GB悠悠MP4_MP4电影下载_克莱拉/爱在星空下 Clara.2018.1080p.BluRay.x264.DTS-FGT 9.55GB

                                                                                           

提示:如迅雷下载提示"任务出错"、"因版权无法下载",请尝试【迅雷5】
上传的附件:
最新回复 (0)
返回
本站所有资源均收集自互联网,没有提供影片资源存储, 也未参与录制、上传,若本站收录的资源无意侵犯了您的权益, 请联系邮箱:gogoimgs#gmail.com(#=@)