[2016] [欧美] [恐怖] [WEB-1080P] 绞杀者 Garroter.2016.1080p.AMZN.WEBRip.DDP2.0.x264-BobDobbs 7.39GB

uump4 13天前 120

悠悠MP4_MP4电影下载_绞杀者 Garroter.2016.1080p.AMZN.WEBRip.DDP2.0.x264-BobDobbs 7.39GB
悠悠MP4_MP4电影下载_绞杀者 Garroter.2016.1080p.AMZN.WEBRip.DDP2.0.x264-BobDobbs 7.39GB

◎译  名 绞杀者
◎片  名 Garroter
◎年  代 2016
◎产  地 美国
◎类  别 恐怖
◎语  言 英语
◎IMDb评分  7.7/10 from 31 users
◎IMDb链接  https://www.imdb.com/title/tt5022714
◎豆瓣评分 0/10 from 0 users
◎豆瓣链接 https://movie.douban.com/subject/26775704/

◎简  介  

  暂无相关剧情介绍


Video

ID                                       : 1

Format                                   : AVC

Format/Info                              : Advanced Video Codec

Format profile                           : High@L4

Format settings                          : CABAC / 4 Ref Frames

Format settings, CABAC                   : Yes

Format settings, Reference frames        : 4 frames

Codec ID                                 : V_MPEG4/ISO/AVC

Duration                                 : 2 h 22 min

Bit rate                                 : 7 200 kb/s

Width                                    : 1 920 pixels

Height                                   : 1 080 pixels

Display aspect ratio                     : 16:9

Frame rate mode                          : Constant

Frame rate                               : 23.976 (24000/1001/34539) FPS

Color space                              : YUV

Chroma subsampling                       : 4:2:0

Bit depth                                : 8 bits

Scan type                                : Progressive

Bits/(Pixel*Frame)                       : 0.145

Stream size                              : 7.16 GiB (97%)

Language                                 : English

Default                                  : Yes

Forced                                   : No

Color range                              : Limited

Color primaries                          : BT.709

Transfer characteristics                 : BT.709

Matrix coefficients                      : BT.709



Audio

ID                                       : 2

Format                                   : E-AC-3

Format/Info                              : Enhanced AC-3

Commercial name                          : Dolby Digital Plus

Codec ID                                 : A_EAC3

Duration                                 : 2 h 22 min

Bit rate mode                            : Constant

Bit rate                                 : 224 kb/s

Channel(s)                               : 2 channels

Channel layout                           : L R

Sampling rate                            : 48.0 kHz

Frame rate                               : 31.250 FPS (1536 SPF)

Compression mode                         : Lossy

Stream size                              : 228 MiB (3%)

Language                                 : English

Service kind                             : Complete Main

Default                                  : Yes

Forced                                   : No



Text

ID                                       : 3

Format                                   : UTF-8

Codec ID                                 : S_TEXT/UTF8

Codec ID/Info                            : UTF-8 Plain Text

Duration                                 : 2 h 19 min

Bit rate                                 : 96 b/s

Count of elements                        : 2902

Stream size                              : 98.6 KiB (0%)

Language                                 : English

Default                                  : Yes

Forced                                   : No


悠悠MP4_MP4电影下载_绞杀者 Garroter.2016.1080p.AMZN.WEBRip.DDP2.0.x264-BobDobbs 7.39GB悠悠MP4_MP4电影下载_绞杀者 Garroter.2016.1080p.AMZN.WEBRip.DDP2.0.x264-BobDobbs 7.39GB悠悠MP4_MP4电影下载_绞杀者 Garroter.2016.1080p.AMZN.WEBRip.DDP2.0.x264-BobDobbs 7.39GB

                                                                                           

提示:如迅雷下载提示"任务出错"、"因版权无法下载",请尝试【迅雷5】
上传的附件:
最新回复 (0)
返回
本站所有资源均收集自互联网,没有提供影片资源存储, 也未参与录制、上传,若本站收录的资源无意侵犯了您的权益, 请联系邮箱:gogoimgs#gmail.com(#=@)