[2012] [欧美] [动画] [WEB-1080P] 天鹅公主的圣诞 The.Swan.Princess.Christmas.2012.1080p.AMZN.WEBRip.DDP5.1.x264-ABM 2.93GB

uump4 13天前 85

悠悠MP4_MP4电影下载_天鹅公主的圣诞 The.Swan.Princess.Christmas.2012.1080p.AMZN.WEBRip.DDP5.1.x264-ABM 2.93GB
悠悠MP4_MP4电影下载_天鹅公主的圣诞 The.Swan.Princess.Christmas.2012.1080p.AMZN.WEBRip.DDP5.1.x264-ABM 2.93GB

◎译  名 天鹅公主的圣诞
◎片  名 The Swan Princess Christmas
◎年  代 2012
◎产  地 美国
◎类  别 动画 / 音乐 / 奇幻 / 冒险
◎语  言 英语
◎上映日期 2012-11-06(美国)
◎IMDb评分  3.7/10 from 1187 users
◎IMDb链接  https://www.imdb.com/title/tt1984279
◎豆瓣评分 4.1/10 from 67 users
◎豆瓣链接 https://movie.douban.com/subject/20398177/
◎片  长 90分钟

◎标  签 动画 | 美国 | 2012 | 奇幻 | 童话 | 美国动画 | 电影 | 歐美電影

◎简  介  

  天鹅公主的圣诞动画讲述了新婚的公主与王子返回森林度过他们第一个圣诞节,未料邪恶的巫师前来搅局,他们该如何联合森林里的好朋友一起度过这个危难......


Video

ID                                       : 1

Format                                   : AVC

Format/Info                              : Advanced Video Codec

Format profile                           : High@L4

Format settings                          : CABAC / 4 Ref Frames

Format settings, CABAC                   : Yes

Format settings, Reference frames        : 4 frames

Codec ID                                 : V_MPEG4/ISO/AVC

Duration                                 : 1 h 24 min

Bit rate mode                            : Variable

Bit rate                                 : 4 337 kb/s

Maximum bit rate                         : 15.0 Mb/s

Width                                    : 1 920 pixels

Height                                   : 1 080 pixels

Display aspect ratio                     : 16:9

Frame rate mode                          : Constant

Frame rate                               : 23.976 (24000/1001/34539) FPS

Color space                              : YUV

Chroma subsampling                       : 4:2:0

Bit depth                                : 8 bits

Scan type                                : Progressive

Bits/(Pixel*Frame)                       : 0.087

Stream size                              : 2.55 GiB (87%)

Writing library                          : x264 core 148 r2623 d5b2374

Encoding settings                        : cabac=1 / ref=4 / deblock=1:-1:-1 / analyse=0x3:0x133 / me=umh / subme=9 / psy=1 / psy_rd=1.00:0.15 / mixed_ref=1 / me_range=24 / chroma_me=1 / trellis=2 / 8x8dct=1 / cqm=0 / deadzone=21,11 / fast_pskip=1 / chroma_qp_offset=-3 / threads=34 / lookahead_threads=5 / sliced_threads=0 / nr=150 / decimate=1 / interlaced=0 / bluray_compat=0 / constrained_intra=0 / bframes=8 / b_pyramid=2 / b_adapt=2 / b_bias=0 / direct=3 / weightb=1 / open_gop=0 / weightp=2 / keyint=120 / keyint_min=61 / scenecut=0 / intra_refresh=0 / rc_lookahead=120 / rc=crf / mbtree=1 / crf=18.0 / qcomp=0.60 / qpmin=0 / qpmax=69 / qpstep=4 / vbv_maxrate=15000 / vbv_bufsize=31250 / crf_max=0.0 / nal_hrd=vbr / filler=0 / ip_ratio=1.40 / aq=3:1.00

Default                                  : Yes

Forced                                   : No

Color range                              : Limited

Color primaries                          : BT.709

Transfer characteristics                 : BT.709

Matrix coefficients                      : BT.709



Audio

ID                                       : 2

Format                                   : E-AC-3

Format/Info                              : Enhanced AC-3

Commercial name                          : Dolby Digital Plus

Codec ID                                 : A_EAC3

Duration                                 : 1 h 24 min

Bit rate mode                            : Constant

Bit rate                                 : 640 kb/s

Channel(s)                               : 6 channels

Channel layout                           : L R C LFE Ls Rs

Sampling rate                            : 48.0 kHz

Frame rate                               : 31.250 FPS (1536 SPF)

Compression mode                         : Lossy

Stream size                              : 385 MiB (13%)

Language                                 : English

Service kind                             : Complete Main

Default                                  : Yes

Forced                                   : No



Text

ID                                       : 3

Format                                   : UTF-8

Codec ID                                 : S_TEXT/UTF8

Codec ID/Info                            : UTF-8 Plain Text

Duration                                 : 1 h 20 min

Bit rate                                 : 59 b/s

Count of elements                        : 1258

Stream size                              : 34.9 KiB (0%)

Title                                    : SDH

Language                                 : English

Default                                  : No

Forced                                   : No


悠悠MP4_MP4电影下载_天鹅公主的圣诞 The.Swan.Princess.Christmas.2012.1080p.AMZN.WEBRip.DDP5.1.x264-ABM 2.93GB悠悠MP4_MP4电影下载_天鹅公主的圣诞 The.Swan.Princess.Christmas.2012.1080p.AMZN.WEBRip.DDP5.1.x264-ABM 2.93GB悠悠MP4_MP4电影下载_天鹅公主的圣诞 The.Swan.Princess.Christmas.2012.1080p.AMZN.WEBRip.DDP5.1.x264-ABM 2.93GB

                                                                                           

提示:如迅雷下载提示"任务出错"、"因版权无法下载",请尝试【迅雷5】
上传的附件:
最新回复 (0)
返回
本站所有资源均收集自互联网,没有提供影片资源存储, 也未参与录制、上传,若本站收录的资源无意侵犯了您的权益, 请联系邮箱:gogoimgs#gmail.com(#=@)