[2019] [其他] [奇幻] [BD-4K] 匹诺曹/木偶奇遇记 Pinocchio.2019.ITALIAN.2160p.BluRay.x264.8bit.SDR.DTS-HD.MA.5.1-SWTYBLZ 29.54GB

uump4 13天前 148

悠悠MP4_MP4电影下载_匹诺曹/木偶奇遇记 Pinocchio.2019.ITALIAN.2160p.BluRay.x264.8bit.SDR.DTS-HD.MA.5.1-SWTYBLZ 29.54GB
悠悠MP4_MP4电影下载_匹诺曹/木偶奇遇记 Pinocchio.2019.ITALIAN.2160p.BluRay.x264.8bit.SDR.DTS-HD.MA.5.1-SWTYBLZ 29.54GB

◎译  名 匹诺曹 / 木偶奇遇记 / 皮诺丘的奇幻旅程(台)
◎片  名 Pinocchio
◎年  代 2019
◎产  地 意大利 / 法国 / 英国
◎类  别 奇幻
◎语  言 意大利语
◎上映日期 2019-12-19(意大利)
◎IMDb评分  6.3/10 from 3766 users
◎IMDb链接  https://www.imdb.com/title/tt8333746
◎豆瓣评分 6.7/10 from 4904 users
◎豆瓣链接 https://movie.douban.com/subject/26886204/
◎片  长 124分钟
◎导  演 马提欧·加洛尼 Matteo Garrone
◎编  剧 卡洛·科洛迪 Carlo Collodi / 马提欧·加洛尼 Matteo Garrone / 马西莫·切可里尼 Massimo Ceccherini
◎主  演 费德里科·伊帕迪 Federico Ielapi
       罗伯托·贝尼尼 Roberto Benigni
       罗科·帕帕莱奥 Rocco Papaleo
       马西莫·切可里尼 Massimo Ceccherini
       玛丽恩·瓦科特 Marine Vacth
       吉吉·普罗耶蒂 Gigi Proietti
       阿利达·巴尔达里·卡拉布里亚 Alida Baldari Calabria
       Alessio Di Domenicantonio
       达维德·马洛塔 Davide Marotta
       保罗·格拉齐西 Paolo Graziosi
       马西米利亚诺·加洛 Massimiliano Gallo
       詹弗兰科·加洛 Gianfranco Gallo
       特科·切里奥 Teco Celio
       尼诺?斯卡迪纳 Nino Scardina
       毛里齐奥·隆巴迪 Maurizio Lombardi
       纪尧姆·德洛内 Guillaume Delaunay
       吉格欧·莫拉 Gigio Morra
       Ciro Petrone
       Barbara Enrichi
       马尔切洛·丰特 Marcello Fonte
       马蒂尔达·德·安杰利斯 Matilda De Angelis


◎标  签 奇幻

◎简  介  

  意大利真人版《匹诺曹》,故事围绕一个老木匠与他雕刻的小木偶匹诺曹展开。

◎获奖情况  

  第65届意大利大卫奖(2020)
  最佳影片(提名)
  最佳导演(提名) 马提欧·加洛尼
  最佳改编剧本(提名) 马提欧·加洛尼 / 马西莫·切可里尼
  最佳女配角(提名) 阿利达·巴尔达里·卡拉布里亚
  最佳男配角(提名) 罗伯托·贝尼尼
  最佳摄影(提名)
  最佳音乐(提名)
  最佳美术设计
  最佳服装设计
  最佳化妆
  最佳剪辑(提名)
  最佳音效(提名)
  最佳视觉效果


Video

ID                                       : 1

Format                                   : AVC

Format/Info                              : Advanced Video Codec

Format profile                           : High@L5.1

Format settings                          : CABAC / 5 Ref Frames

Format settings, CABAC                   : Yes

Format settings, Reference frames        : 5 frames

Codec ID                                 : V_MPEG4/ISO/AVC

Duration                                 : 2 h 5 min

Bit rate                                 : 30.7 Mb/s

Width                                    : 3 840 pixels

Height                                   : 1 612 pixels

Display aspect ratio                     : 2.40:1

Frame rate mode                          : Constant

Frame rate                               : 24.000 FPS

Color space                              : YUV

Chroma subsampling                       : 4:2:0

Bit depth                                : 8 bits

Scan type                                : Progressive

Bits/(Pixel*Frame)                       : 0.207

Stream size                              : 26.8 GiB (91%)

Title                                    : Pinocchio.2019.ITALIAN.2160p.BluRay.x264.8bit.SDR.DTS-HD.MA.5.1-SWTYBLZ

Writing library                          : x264 core 157 r2935 545de2f

Encoding settings                        : cabac=1 / ref=5 / deblock=1:-1:-1 / analyse=0x3:0x113 / me=umh / subme=10 / psy=1 / psy_rd=1.00:0.15 / mixed_ref=1 / me_range=48 / chroma_me=1 / trellis=2 / 8x8dct=1 / cqm=0 / deadzone=21,11 / fast_pskip=1 / chroma_qp_offset=-3 / threads=36 / lookahead_threads=3 / sliced_threads=0 / nr=0 / decimate=0 / interlaced=0 / bluray_compat=0 / constrained_intra=0 / bframes=3 / b_pyramid=2 / b_adapt=2 / b_bias=0 / direct=3 / weightb=1 / open_gop=0 / weightp=2 / keyint=250 / keyint_min=23 / scenecut=40 / intra_refresh=0 / rc_lookahead=50 / rc=crf / mbtree=1 / crf=18.0 / qcomp=0.60 / qpmin=0 / qpmax=69 / qpstep=4 / ip_ratio=1.40 / aq=1:1.00

Language                                 : Italian

Default                                  : Yes

Forced                                   : No



Audio #1

ID                                       : 2

ID in the original source medium         : 4353 (0x1101)

Format                                   : DTS XLL

Format/Info                              : Digital Theater Systems

Commercial name                          : DTS-HD Master Audio

Codec ID                                 : A_DTS

Duration                                 : 2 h 5 min

Bit rate mode                            : Variable

Bit rate                                 : 2 330 kb/s

Channel(s)                               : 6 channels

Channel layout                           : C L R Ls Rs LFE

Sampling rate                            : 48.0 kHz

Frame rate                               : 93.750 FPS (512 SPF)

Bit depth                                : 16 bits

Compression mode                         : Lossless

Stream size                              : 2.04 GiB (7%)

Title                                    : Pinocchio.2019.ITALIAN.2160p.BluRay.x264.8bit.SDR.DTS-HD.MA.5.1-SWTYBLZ

Language                                 : Italian

Default                                  : Yes

Forced                                   : No

Original source medium                   : Blu-ray



Audio #2

ID                                       : 3

Format                                   : AC-3

Format/Info                              : Audio Coding 3

Commercial name                          : Dolby Digital

Codec ID                                 : A_AC3

Duration                                 : 2 h 5 min

Bit rate mode                            : Constant

Bit rate                                 : 640 kb/s

Channel(s)                               : 6 channels

Channel layout                           : L R C LFE Ls Rs

Sampling rate                            : 48.0 kHz

Frame rate                               : 31.250 FPS (1536 SPF)

Compression mode                         : Lossy

Stream size                              : 573 MiB (2%)

Title                                    : Pinocchio.2019.ITALIAN.2160p.BluRay.x264.8bit.SDR.DTS-HD.MA.5.1-SWTYBLZ

Language                                 : Italian

Service kind                             : Complete Main

Default                                  : No

Forced                                   : No



Text #1

ID                                       : 4

Format                                   : UTF-8

Codec ID                                 : S_TEXT/UTF8

Codec ID/Info                            : UTF-8 Plain Text

Duration                                 : 1 h 54 min

Bit rate                                 : 49 b/s

Count of elements                        : 1298

Stream size                              : 41.7 KiB (0%)

Title                                    : English-SRT

Language                                 : English

Default                                  : Yes

Forced                                   : No



Text #2

ID                                       : 5

ID in the original source medium         : 4768 (0x12A0)

Format                                   : PGS

Muxing mode                              : zlib

Codec ID                                 : S_HDMV/PGS

Codec ID/Info                            : Picture based subtitle format used on BDs/HD-DVDs

Duration                                 : 1 h 52 min

Bit rate                                 : 34.4 kb/s

Count of elements                        : 3402

Stream size                              : 27.8 MiB (0%)

Title                                    : German-PGS

Language                                 : German

Default                                  : No

Forced                                   : No

Original source medium                   : Blu-ray



Menu

00:00:00.000                             : en:Chapter 01

00:11:25.916                             : en:Chapter 02

00:20:42.916                             : en:Chapter 03

00:31:30.083                             : en:Chapter 04

00:40:53.250                             : en:Chapter 05

00:50:47.791                             : en:Chapter 06

00:59:33.833                             : en:Chapter 07

01:10:38.208                             : en:Chapter 08

01:19:59.875                             : en:Chapter 09

01:29:35.250                             : en:Chapter 10

01:40:35.583                             : en:Chapter 11

01:52:54.583                             : en:Chapter 12


悠悠MP4_MP4电影下载_匹诺曹/木偶奇遇记 Pinocchio.2019.ITALIAN.2160p.BluRay.x264.8bit.SDR.DTS-HD.MA.5.1-SWTYBLZ 29.54GB悠悠MP4_MP4电影下载_匹诺曹/木偶奇遇记 Pinocchio.2019.ITALIAN.2160p.BluRay.x264.8bit.SDR.DTS-HD.MA.5.1-SWTYBLZ 29.54GB悠悠MP4_MP4电影下载_匹诺曹/木偶奇遇记 Pinocchio.2019.ITALIAN.2160p.BluRay.x264.8bit.SDR.DTS-HD.MA.5.1-SWTYBLZ 29.54GB悠悠MP4_MP4电影下载_匹诺曹/木偶奇遇记 Pinocchio.2019.ITALIAN.2160p.BluRay.x264.8bit.SDR.DTS-HD.MA.5.1-SWTYBLZ 29.54GB悠悠MP4_MP4电影下载_匹诺曹/木偶奇遇记 Pinocchio.2019.ITALIAN.2160p.BluRay.x264.8bit.SDR.DTS-HD.MA.5.1-SWTYBLZ 29.54GB悠悠MP4_MP4电影下载_匹诺曹/木偶奇遇记 Pinocchio.2019.ITALIAN.2160p.BluRay.x264.8bit.SDR.DTS-HD.MA.5.1-SWTYBLZ 29.54GB悠悠MP4_MP4电影下载_匹诺曹/木偶奇遇记 Pinocchio.2019.ITALIAN.2160p.BluRay.x264.8bit.SDR.DTS-HD.MA.5.1-SWTYBLZ 29.54GB悠悠MP4_MP4电影下载_匹诺曹/木偶奇遇记 Pinocchio.2019.ITALIAN.2160p.BluRay.x264.8bit.SDR.DTS-HD.MA.5.1-SWTYBLZ 29.54GB

                                                                                           

提示:如迅雷下载提示"任务出错"、"因版权无法下载",请尝试【迅雷5】
上传的附件:
最新回复 (0)
返回
本站所有资源均收集自互联网,没有提供影片资源存储, 也未参与录制、上传,若本站收录的资源无意侵犯了您的权益, 请联系邮箱:gogoimgs#gmail.com(#=@)